<?xml version="1.0" standalone="no"?> <!DOCTYPE svg PUBLIC "-//W3C//DTD SVG 1.0//EN" "http://www.w3.org/TR/2001/REC-SVG-20010904/DTD/svg10.dtd" > <svg xmlns="http://www.w3.org/2000/svg" width="100%" height="100%">
<defs >
<font id="MathJax_Main-Regular" horiz-adv-x="428" ><font-face
    font-family="MathJax_Main"
    units-per-em="1000"
    panose-1="0 0 0 0 0 0 0 0 0 0"
    ascent="1167"
    descent="-472"
    alphabetic="0" />
<missing-glyph horiz-adv-x="250" d="M50 0V533H200V0H50ZM100 50H150V483H100V50Z" />
<glyph unicode=" " glyph-name="space" horiz-adv-x="250" />
<glyph unicode="!" glyph-name="exclam" horiz-adv-x="278" d="M78 661Q78 682 95 699T138 716Q162 716 180 700T199 661Q199 654 179 432T158 206Q156 198 139 198Q121 198 119 206Q118 209 98 431T78 661ZM141 121Q166 119 182 104T198 61Q198 25 171 10Q158
1 139 1Q119 1 106 10Q79 25 79 61Q79 89 96 105T141 121Z" />
<glyph unicode="&quot;" glyph-name="quotedbl" horiz-adv-x="500" d="M34 634Q34 659 50 676T93 694Q117 694 138 675Q168 641 168 579Q168 518 140 464Q120 423 91 394Q76 379 73 379T60 388T50 401Q50 405 62 417Q127 483 131 572Q131 584 130 584Q127 582
123 580Q110 573 94 573Q69 573 52 590T34 634ZM238 634Q238 659 254 676T297 694Q321 694 342 675Q372 641 372 579Q372 518 344 464Q324 423 295 394Q280 379 277 379T264 388T254 401Q254 405 266 417Q331 483 335 572Q335 584 334 584Q331 582 327 580Q314
573 298 573Q273 573 256 590T238 634Z" />
<glyph unicode="#" glyph-name="numbersign" horiz-adv-x="833" d="M56 347Q56 360 70 367H313L355 524Q396 679 400 685Q404 694 416 694Q434 694 436 676Q436 672 396 522Q355 374 355 369L354 367H543L585 524Q626 679 630 685Q636 694 646 694Q652 694 658
690T665 678Q665 668 626 522Q585 374 585 369L584 367H762Q777 360 777 347Q777 335 767 330Q761 327 667 327H572L552 251L531 174Q531 173 647 173Q761 173 767 170Q777 164 777 153Q777 140 762 133H519L477 -24Q436 -179 432 -185Q426 -194 416 -194Q410 -194
404 -189T397 -177Q397 -167 436 -21Q477 125 477 131L478 133H289L247 -24Q206 -179 202 -185Q196 -194 186 -194Q180 -194 174 -189T167 -177Q167 -167 206 -21Q247 125 247 131L248 133H70Q56 140 56 153Q56 168 72 173H260L280 249L301 326Q301 327 186 327H72Q56
332 56 347ZM531 326Q531 327 437 327H342L322 251L301 174Q301 173 395 173H490L510 249L531 326Z" />
<glyph unicode="$" glyph-name="dollar" horiz-adv-x="500" d="M162 187Q162 165 147 149T109 133H103V130Q108 115 115 105Q146 45 223 37L227 36V313L223 314Q222 314 220 315T213 317T205 319Q117 339 75 423Q55 465 55 508Q55 570 86 616T165 685Q186 696
225 704H227V750H273V704L286 703Q368 690 413 631Q441 588 444 531Q444 514 443 509Q439 490 425 479T391 468Q368 468 353 483T337 522Q337 544 352 559T390 575L394 576V578Q365 646 277 657L273 658V408L288 405Q329 394 355 376Q396 348 420 300T444 199Q444
128 407 75T313 1Q286 -9 276 -9H273V-56H227V-10H221Q127 8 89 66Q58 112 55 176Q55 194 56 199Q64 230 95 238Q102 241 111 241Q132 241 147 224T162 187ZM227 539Q227 657 225 657Q221 657 202 650Q167 637 144 608T121 538Q121 499 146 468T214 424Q217 423
220 422T225 420H227V539ZM286 298Q277 301 274 301Q273 301 273 169V37Q317 48 347 84T378 169T353 251T286 298Z" />
<glyph unicode="%" glyph-name="percent" horiz-adv-x="833" d="M319 641Q332 608 332 548Q332 460 293 403Q256 347 202 347Q171 347 136 369Q56 424 56 548Q56 627 93 683T185 748Q197 750 202 750Q241 750 272 719Q343 656 429 643Q435 642 464 642T500 643Q593
658 650 732Q652 734 654 738T658 743T660 746T663 748T667 749T673 750Q682 750 688 743T693 726Q178 -47 170 -52Q166 -56 160 -56Q152 -56 146 -50T139 -36Q139 -32 142 -27Q143 -24 363 304Q469 462 525 546T581 630Q526 605 465 605Q398 605 332 635Q329 636
326 637T321 640L319 641ZM245 693Q226 712 200 712Q180 712 163 693Q144 671 138 639T132 548T138 456T165 403Q183 385 203 385H207Q226 385 245 404Q292 451 292 548Q292 646 245 693ZM500 146Q500 225 537 280T629 345Q641 347 647 347Q698 347 737 292Q776
234 776 146Q776 57 737 0Q700 -56 646 -56Q615 -56 580 -34Q500 21 500 146ZM689 290Q670 309 644 309Q624 309 607 290Q587 267 582 239T577 146Q577 79 582 55Q593 0 630 -16Q636 -18 647 -18H651Q670 -18 689 1Q736 48 736 146Q736 243 689 290Z" />
<glyph unicode="&amp;" glyph-name="ampersand" horiz-adv-x="778" d="M195 347Q156 448 156 540Q156 623 208 675Q249 716 302 716Q317 716 326 713Q359 704 380 667T401 578Q401 548 384 513Q357 459 287 386L274 373Q313 276 416 148L429 132L437 142Q474 191
543 309L562 341V349Q562 366 543 375T498 385H493V431H502Q520 428 626 428Q708 428 721 431H727V385H712Q634 380 608 344Q607 343 603 337T592 318T578 295Q506 171 460 113Q453 104 454 103Q456 101 473 85T497 62Q543 24 585 24Q623 24 651 50T682 113V121H722V112Q717
53 678 16T574 -22Q491 -19 414 42L402 51L391 42Q312 -22 224 -22Q148 -22 95 24T42 135Q42 179 68 217Q75 228 156 308L195 347ZM315 678Q312 679 305 679Q270 679 251 649T232 572Q232 497 255 426L259 411L267 420Q350 507 360 562Q360 564 360 568T361 576Q361
590 358 607Q349 668 315 678ZM140 164Q140 101 168 63T240 24Q304 24 366 70Q374 75 374 77Q371 80 368 84Q339 111 300 163T235 262L220 292L210 310L193 293Q164 264 152 238T140 164Z" />
<glyph unicode="&apos;" glyph-name="quotesingle" horiz-adv-x="278" d="M78 634Q78 659 95 676T138 694Q162 694 183 675Q212 642 212 579T185 464Q165 423 136 394Q121 379 118 379Q114 379 105 388T95 401Q95 405 107 417Q172 483 176 572Q176 584 175 584Q172
582 168 580Q155 573 139 573Q114 573 96 590T78 634Z" />
<glyph unicode="(" glyph-name="parenleft" horiz-adv-x="389" d="M333 -241Q333 -250 315 -250H302L274 -226Q94 -62 94 250Q94 372 123 473Q169 630 274 726L302 750H315Q327 750 330 747T333 741Q333 737 322 726Q167 562 167 250T322 -226Q333 -237 333 -241Z" />
<glyph unicode=")" glyph-name="parenright" horiz-adv-x="389" d="M60 749L64 750Q69 750 74 750H86L114 726Q294 562 294 250Q294 127 265 28Q219 -130 114 -226L86 -250H74Q62 -250 59 -248T55 -238Q56 -237 66 -225Q221 -64 221 250T66 725Q56 737 55 738Q55
746 60 749Z" />
<glyph unicode="*" glyph-name="asterisk" horiz-adv-x="500" d="M100 409Q85 409 75 420T64 447Q64 461 75 470L144 504L210 534L144 566Q78 596 74 600Q64 608 64 624Q64 646 86 657Q100 663 111 657Q116 654 172 613L229 571Q229 578 222 643T215 721Q216 732
225 741T248 750Q263 750 273 742T284 721L270 571L327 613Q383 654 388 657Q399 663 413 657Q435 646 435 624Q435 608 425 600Q421 596 355 566L289 534L355 504L424 470Q435 461 435 447Q435 428 413 412Q399 406 388 412Q383 415 327 456L270 498L277 423L284
348Q283 337 274 329T250 320Q235 320 226 328T215 348L229 498L172 456Q116 415 111 412Q105 409 100 409Z" />
<glyph unicode="+" glyph-name="plus" horiz-adv-x="778" d="M56 237T56 250T70 270H369V420L370 570Q380 583 389 583Q402 583 409 568V270H707Q722 262 722 250T707 230H409V-68Q402 -82 389 -82T369 -68V230H70Q56 237 56 250Z" />
<glyph unicode="," glyph-name="comma" horiz-adv-x="278" d="M78 35T78 60T94 103T137 121Q175 121 192 89T210 8Q210 -11 208 -27Q194 -116 135 -180Q121 -194 117 -194T104 -185T95 -172Q95 -167 105 -157Q167 -94 173 -3V9Q172 9 167 6Q154 0 140 0Q114 0 96 17Z" />
<glyph unicode="-" glyph-name="hyphen" horiz-adv-x="333" d="M11 179V252H277V179H11Z" />
<glyph unicode="." glyph-name="period" horiz-adv-x="278" d="M78 60Q78 86 95 103T138 120T181 103T199 61Q199 35 181 18T139 0Q113 0 96 18T78 60Z" />
<glyph unicode="/" glyph-name="slash" horiz-adv-x="500" d="M75 -250Q68 -250 62 -244T56 -231Q56 -221 230 257T407 740Q412 750 425 750Q433 749 439 743T444 730Q444 725 271 248T92 -240Q85 -250 75 -250Z" />
<glyph unicode="0" glyph-name="zero" horiz-adv-x="500" d="M96 585Q152 666 249 666Q322 666 377 616Q404 590 423 548Q460 465 460 320Q460 165 417 83Q389 25 335 -1Q293 -22 250 -22Q135 -22 82 83Q39 165 39 320Q39 413 51 473T96 585ZM321 597Q292 629
250 629T178 597Q156 574 148 541T138 427Q138 421 138 388T137 333Q137 237 139 199Q143 129 151 99T181 46Q208 16 250 16Q291 16 318 46Q340 68 348 98T360 199Q362 237 362 333Q362 355 362 388T361 427Q359 508 351 541T321 597Z" />
<glyph unicode="1" glyph-name="one" horiz-adv-x="500" d="M416 0Q399 3 257 3Q117 3 100 0H88V46H114Q172 46 189 49Q197 50 213 61V578Q211 578 205 575Q159 557 102 556H83V602H102Q186 605 242 640Q260 650 273 663Q275 666 285 666T302 660V361L303 61Q318
46 368 46H401H427V0H416Z" />
<glyph unicode="2" glyph-name="two" horiz-adv-x="500" d="M110 429Q82 429 66 447T50 491Q50 563 104 614T235 666Q321 666 377 620T447 498Q449 480 449 465Q449 407 414 356Q386 314 301 241Q265 210 201 149L142 93L218 92Q375 92 385 97Q389 98 395 118Q399
129 409 186V189H449V186Q448 183 436 95T421 3V0H50V19Q50 39 52 42Q53 43 136 137Q245 258 276 297Q343 388 343 464Q343 530 309 574T212 619Q154 619 118 567Q116 563 112 556Q109 551 109 550T114 549Q139 549 154 531T170 489Q170 464 154 447T110 429Z"
/>
<glyph unicode="3" glyph-name="three" horiz-adv-x="500" d="M127 463Q100 463 85 480T69 524Q69 581 114 619T218 665H233Q268 665 277 664Q310 659 344 643Q410 610 427 549Q430 539 430 522Q430 463 394 417T302 350L299 348Q299 347 308 345T337 335T375
315Q457 262 457 175Q457 134 438 96Q414 45 360 12T238 -22Q172 -22 121 6T52 81Q42 102 42 130T60 175T105 193Q133 193 151 175T169 130Q169 107 156 90T121 68L114 66Q168 21 238 21Q293 21 321 74Q338 107 338 175V195Q338 290 274 322Q259 328 213 329L171
330L168 332Q166 335 166 348Q166 360 169 363T174 366Q202 366 232 371Q276 377 299 420T322 525Q322 590 287 612Q266 626 240 626Q190 626 152 599Q148 597 143 593T135 584L132 580Q135 579 139 578Q159 576 172 559T186 520Q186 496 170 480T127 463Z" />
<glyph unicode="4" glyph-name="four" horiz-adv-x="500" d="M462 0Q448 3 333 3Q213 3 199 0H190V46H221Q264 47 274 51Q282 53 286 61Q287 63 287 115V165H28V211L179 442Q332 674 334 675Q336 677 355 677H373L379 671V211H471V165H379V114Q379 73 379 66T385
54Q393 47 442 46H471V0H462ZM293 211V545L74 212L183 211H293Z" />
<glyph unicode="5" glyph-name="five" horiz-adv-x="500" d="M107 214Q131 214 147 198T164 156Q164 133 147 117T109 101H102L105 96Q120 64 151 43T224 22Q295 22 326 82Q345 119 345 210Q345 313 318 349Q292 382 254 382Q176 382 136 314Q132 307 129 306T114
304Q97 304 95 310Q93 314 93 485Q93 515 93 556T92 608Q92 664 98 664Q100 666 102 666L120 660Q185 634 253 634Q324 634 389 662Q397 666 402 666Q410 666 410 648V635Q329 538 205 538Q174 538 149 544L139 546V374Q196 420 256 420Q275 420 297 415Q364 398
406 339T449 201Q449 110 386 44T229 -22Q166 -22 122 13Q103 25 89 46Q59 82 51 135Q51 138 51 144T50 154Q50 182 66 198T107 214Z" />
<glyph unicode="6" glyph-name="six" horiz-adv-x="500" d="M373 601Q351 623 311 626Q241 626 194 566Q147 501 147 364L148 360L156 373Q197 433 267 433Q313 433 348 414Q372 400 396 374T435 317Q456 268 456 210V192Q456 169 451 149Q439 90 389 38Q346 -7
293 -18Q277 -22 253 -22Q234 -22 219 -19Q145 -5 101 61Q42 154 42 313Q42 421 80 502T186 628Q240 666 303 666Q361 666 396 635T432 550Q432 525 418 510T379 495T341 509T326 548Q326 593 373 601ZM329 361Q301 397 257 397Q220 397 197 374Q148 325 148 216Q148
127 160 93Q170 63 194 42T251 21Q302 21 329 59Q344 80 348 109T352 193V209V225Q352 282 348 311T329 361Z" />
<glyph unicode="7" glyph-name="seven" horiz-adv-x="500" d="M55 458Q56 460 72 567L88 674Q88 676 108 676H128V672Q128 662 143 655T195 646T364 644H485V605L417 512Q402 491 383 466T354 426T342 409Q290 328 280 192Q276 151 275 80Q275 66 275 52T274 28V19Q270
2 255 -10T221 -22Q197 -22 183 -6T168 40Q168 55 172 97Q187 232 265 368Q285 400 349 489L395 552H302Q128 552 119 546Q115 544 108 524Q102 504 98 477Q96 460 95 458V455H55V458Z" />
<glyph unicode="8" glyph-name="eight" horiz-adv-x="500" d="M43 155Q43 264 172 335L154 348Q133 361 127 368Q84 405 72 463Q70 472 70 494Q70 537 86 566Q108 611 150 638T248 666Q316 666 366 631T428 539Q429 533 429 515Q429 493 427 485Q412 419 336 371L324
363L338 354Q352 344 366 334T382 323Q457 263 457 174Q457 93 398 36T249 -22Q126 -22 68 68Q43 104 43 155ZM371 513Q371 556 343 586T275 624Q268 625 242 625Q189 625 153 589Q128 566 128 534Q128 491 164 466Q169 461 228 424L286 386Q287 387 299 394T317
408Q371 451 371 513ZM107 157Q107 98 150 60T250 21Q291 21 324 38T375 82Q392 108 392 137Q392 180 357 213Q349 221 274 270Q260 279 244 289T218 306L210 311L198 305Q135 264 115 205Q107 179 107 157Z" />
<glyph unicode="9" glyph-name="nine" horiz-adv-x="500" d="M173 96Q173 75 163 61T135 44L131 43Q131 42 138 38T149 32Q172 22 206 22Q225 22 232 24Q280 36 313 86Q352 142 352 280V287L347 279Q306 211 232 211Q152 211 96 280Q67 316 55 350T42 436Q42 494
57 531T111 606Q163 658 235 665L238 666Q241 666 243 666T249 666T257 665Q278 665 286 663Q367 645 413 560Q456 473 456 334Q456 194 396 97Q361 41 312 10T208 -22Q145 -22 107 7T68 93T121 149Q144 149 158 135T173 96ZM274 623Q264 625 246 625Q208 625 181
598Q160 576 154 546T147 441Q147 373 152 333Q157 295 181 272T244 248H248Q302 253 326 304T351 430Q351 508 343 542Q338 571 319 594T274 623Z" />
<glyph unicode=":" glyph-name="colon" horiz-adv-x="278" d="M78 370Q78 396 95 413T138 430T181 413T199 371Q199 345 181 328T139 310Q113 310 96 328T78 370ZM78 60Q78 86 95 103T138 120T181 103T199 61Q199 35 181 18T139 0Q113 0 96 18T78 60Z" />
<glyph unicode=";" glyph-name="semicolon" horiz-adv-x="278" d="M78 370Q78 396 95 413T138 430T181 413T199 371Q199 345 181 328T139 310Q113 310 96 328T78 370ZM78 34T78 60T94 103T137 121Q202 121 202 8Q202 -20 198 -40Q184 -121 130 -185Q121 -194 118
-194T106 -186T95 -174Q94 -170 105 -157Q150 -101 160 -38Q161 -32 162 -22T165 -4T165 4Q146 1 142 0Q114 0 96 17Z" />
<glyph unicode="&lt;" glyph-name="less" horiz-adv-x="778" d="M694 -19Q694 -25 690 -32T678 -40T524 29T234 166L90 235Q83 240 83 250Q83 261 91 266Q664 540 678 540Q685 540 689 533T694 519Q694 511 687 505Q686 504 417 376L151 250L417 124Q686 -4 687
-5Q694 -11 694 -19Z" />
<glyph unicode="=" glyph-name="equal" horiz-adv-x="778" d="M56 347Q56 360 70 367H707Q722 360 722 347Q722 336 708 328L390 327H72Q56 332 56 347ZM56 153Q56 168 72 173H708Q709 172 712 170T717 166T720 161T722 153Q722 140 707 133H70Q56 140 56 153Z" />
<glyph unicode="&gt;" glyph-name="greater" horiz-adv-x="778" d="M84 513T84 520T88 533T99 540Q106 540 253 471T544 334L687 265Q694 260 694 250T687 235Q685 233 395 96L107 -40H101Q83 -38 83 -20Q83 -15 86 -9Q90 -4 378 132L626 250L378 368Q90 504 86
509Q84 513 84 520Z" />
<glyph unicode="?" glyph-name="question" horiz-adv-x="472" d="M132 514T109 514T71 528T55 566Q55 638 115 673Q154 699 199 704Q201 704 210 704T224 705H228Q361 705 401 626Q416 598 416 567Q416 504 361 462Q267 395 247 303Q242 279 242 241Q242 213 241
207T236 199Q233 198 222 198Q206 198 203 203Q202 205 202 249Q203 309 210 341T238 414Q260 456 289 488Q307 507 312 522T317 574V587Q317 630 299 648Q274 668 226 668Q170 668 133 640Q132 639 131 638T127 635T124 631T120 628T117 625T115 622L114 621L117
620Q120 619 125 618T135 614T146 606T155 594Q162 582 162 567Q162 544 147 529ZM224 121Q249 119 265 104T281 61Q281 25 254 10Q241 1 222 1Q202 1 189 10Q162 25 162 61Q162 89 179 105T224 121Z" />
<glyph unicode="@" glyph-name="at" horiz-adv-x="778" d="M722 349Q722 301 718 266T702 196T667 144T608 126Q539 126 513 176Q512 177 512 179T510 182L509 183Q504 178 497 172Q451 126 385 126Q366 126 360 127Q231 157 197 286Q190 314 190 347Q190 425
227 477Q273 550 360 567Q366 568 385 568Q473 568 528 485L531 479H555Q580 479 582 478Q586 477 587 468Q588 454 588 338Q588 195 593 182Q601 163 619 163Q634 163 644 170Q682 196 682 330Q682 426 647 500Q599 595 509 639Q449 668 388 668Q328 668 268 639Q191
601 144 526T96 347Q96 296 109 250Q132 167 194 107T343 30Q363 26 396 26Q457 26 529 42T650 81L657 84H716Q722 78 722 74Q722 65 639 33Q518 -11 392 -11Q315 -11 247 23Q171 61 120 134T57 304Q56 314 56 347Q56 493 145 592T361 704Q369 705 386 705Q462
705 530 671Q606 633 657 560T720 391Q722 369 722 349ZM413 529Q402 532 387 532Q377 532 374 531Q328 520 301 467T274 347Q274 264 309 214Q343 162 390 162Q401 162 413 165Q465 179 498 235L504 245V449L498 459Q465 515 413 529Z" />
<glyph unicode="A" glyph-name="A" horiz-adv-x="750" d="M255 0Q237 3 140 3Q51 3 39 0H32V46H47Q119 49 139 88Q140 91 192 245T295 553T348 708Q351 716 367 716H376Q396 715 400 709Q402 707 508 390L617 67Q620 61 624 57Q635 47 687 46H717V0H708Q693 3
581 3Q452 3 437 0H427V46H440Q510 46 510 64Q510 66 486 138L462 209H229L209 150Q189 91 189 85Q189 80 192 76Q198 63 217 55T259 46H264V0H255ZM447 255L345 557L244 256Q244 255 345 255H447Z" />
<glyph unicode="B" glyph-name="B" horiz-adv-x="708" d="M131 622Q121 632 112 634T61 637H28V683H229Q430 682 443 680Q497 671 531 651Q589 618 612 567Q624 540 624 512Q624 461 583 419T476 360L466 357Q536 349 586 310T650 211Q651 205 651 187Q651 164
649 156Q636 97 587 55T469 3Q456 1 242 0H28V46H61Q102 47 111 49T131 61V622ZM511 513Q511 560 485 594T416 636Q415 636 403 636T371 636T333 637T296 637T263 636T248 636Q235 635 232 628Q229 624 229 499V374H312L396 375L406 377Q409 378 416 380L422 382Q461
396 486 430T511 513ZM537 188Q537 245 507 285T430 336L329 337H229V200Q229 61 230 59Q232 54 234 52Q240 47 334 47H383Q425 47 443 53Q486 67 511 104T537 188Z" />
<glyph unicode="C" glyph-name="C" horiz-adv-x="722" d="M660 257L666 251V236Q661 146 607 77T468 -14Q439 -21 403 -21Q366 -21 340 -15Q228 7 152 91T57 299Q56 308 56 342Q56 375 57 385Q74 507 151 591T340 699Q372 705 391 705Q393 705 399 705T408 704Q432
704 442 702Q515 689 569 636L582 624L612 663Q639 700 643 704Q644 704 647 704T653 705Q660 705 666 699V419L660 413H626Q620 419 619 430Q610 512 571 572T476 651Q457 658 426 658Q322 658 252 588Q173 509 173 342Q173 221 211 151Q242 92 299 58T428 24Q501
24 555 76T621 200Q626 225 626 244Q626 251 632 257H660Z" />
<glyph unicode="D" glyph-name="D" horiz-adv-x="764" d="M130 622Q120 632 111 634T60 637H27V683H228Q399 682 419 682T461 676Q559 655 625 572T706 379Q708 359 708 336T706 293Q692 182 621 102T442 3Q429 1 228 0H27V46H60Q101 47 110 49T130 61V622ZM395
636Q393 636 382 636T353 636T322 637T291 637T263 636T250 636Q237 635 234 628Q231 624 231 344Q231 62 232 59Q234 50 244 48Q252 46 339 46Q404 46 441 56T515 95Q593 160 593 338Q593 406 586 442Q570 550 493 602Q449 631 395 636Z" />
<glyph unicode="E" glyph-name="E" horiz-adv-x="681" d="M128 619Q118 629 109 631T58 634H25V680H597V676L611 560Q625 445 625 444V440H585V444Q584 447 582 465Q570 559 537 593T421 633Q411 634 353 634Q253 634 245 632Q236 631 233 621Q232 619 232 497V376H286Q351
377 366 382Q394 390 404 410T416 473V493H456V213H416V233Q414 275 404 295T366 324Q351 329 286 330H232V196Q232 61 233 59Q234 54 237 52Q243 47 289 47H340Q430 47 444 48Q502 55 534 77T584 146Q598 183 607 243Q611 268 612 270V273H652V270Q651 267 632
137T610 3V0H25V46H58Q99 47 108 49T128 61V619Z" />
<glyph unicode="F" glyph-name="F" horiz-adv-x="653" d="M128 619Q118 629 109 631T58 634H25V680H582V676L596 560Q610 445 610 444V440H570V444Q563 493 561 501Q552 558 529 588T455 628Q429 633 334 633H286Q243 633 237 628Q234 626 233 621Q232 619 232
490V363H284Q326 364 345 366T380 378T402 406T410 459V480H450V200H410V221Q408 255 403 273T381 302T345 314T284 317H232V189L233 61Q241 53 249 51T285 47Q296 46 333 46H360V0H348Q322 3 182 3Q55 3 36 0H25V46H58Q99 47 108 49T128 61V619Z" />
<glyph unicode="G" glyph-name="G" horiz-adv-x="785" d="M449 273Q473 270 609 270Q619 270 637 270T666 271Q677 271 693 271T717 272T727 273H735V227H721H711Q675 227 668 215Q666 211 666 108V6Q660 0 657 0Q653 0 639 10Q617 25 600 42L587 54Q568 22 504
-6Q456 -22 406 -22Q369 -22 340 -15Q228 7 152 91T57 299Q56 308 56 342Q56 375 57 385Q74 507 151 591T340 699Q372 705 391 705Q393 705 399 705T408 704Q432 704 442 702Q515 689 569 636L582 624L612 663Q639 700 643 704Q644 704 647 704T653 705Q660 705
666 699V419L660 413H626Q620 419 619 430Q610 512 571 572T476 651Q457 658 426 658Q322 658 252 588Q173 509 173 335Q173 179 248 101Q320 24 431 24Q478 24 513 45T559 100Q562 110 562 160V212Q546 223 538 224Q521 227 463 227H437V273H449Z" />
<glyph unicode="H" glyph-name="H" horiz-adv-x="750" d="M128 622Q118 632 109 634T58 637H25V683H36Q53 680 180 680T324 683H335V637H302Q261 636 251 634T233 622L232 500V378H517V622Q507 632 498 634T447 637H414V683H425Q442 680 569 680T713 683H724V637H691Q650
636 640 634T622 622V61Q629 51 639 49T691 46H724V0H713Q696 3 569 3T425 0H414V46H447Q488 47 497 49T517 61V332H232V197L233 61Q240 51 250 49T302 46H335V0H324Q307 3 180 3T36 0H25V46H58Q99 47 108 49T128 61V622Z" />
<glyph unicode="I" glyph-name="I" horiz-adv-x="361" d="M328 0Q312 3 180 3T32 0H21V46H43Q82 46 109 49Q121 52 126 60Q128 63 128 342Q128 620 126 623Q121 631 109 634Q82 637 43 637H21V683H32Q48 680 180 680T328 683H339V637H317Q278 637 251 634Q239
631 234 623Q232 620 232 342Q232 63 234 60Q239 52 251 49Q278 46 317 46H339V0H328Z" />
<glyph unicode="J" glyph-name="J" horiz-adv-x="514" d="M89 177Q116 177 134 160T152 112Q152 88 138 72T102 52Q99 51 101 49Q106 43 129 29Q159 15 190 15Q204 15 213 18Q242 27 261 56T286 126Q286 127 286 142T286 183T286 238T287 306T287 378Q287 403
287 429T287 479T287 524T286 563T286 593T286 614V621Q280 631 261 634Q243 637 182 637H154V683H166Q189 680 332 680Q342 680 362 680T393 681T420 681T446 682T457 683H465V637H449Q422 637 401 634Q393 631 389 623Q388 621 388 376T387 123Q377 60 321 19T194
-22Q188 -22 176 -21T160 -20Q106 -11 70 20T26 95Q25 100 25 110Q25 141 43 159T89 177Z" />
<glyph unicode="K" glyph-name="K" horiz-adv-x="778" d="M128 622Q118 632 109 634T58 637H25V683H36Q53 680 180 680T324 683H335V637H313H289Q235 637 233 620Q232 618 232 462L233 307L379 449Q525 592 527 596Q529 599 531 607Q531 629 503 636Q501 636 498
636T493 637H489V683H499Q516 680 630 680Q638 680 652 680T673 681Q681 681 692 681T709 682T716 683H722V637H708Q633 633 589 597Q584 592 495 506T406 419T515 254T631 80Q641 65 655 57Q673 47 715 46H736V0H728Q726 0 719 0T696 1T670 2T642 2T615 3Q493
3 472 0H461V46H469Q515 46 515 72Q515 78 512 84L336 351Q327 343 318 334T296 314T278 296L232 251V156Q232 62 235 58Q243 47 302 46H335V0H324Q307 3 180 3T36 0H25V46H58Q99 47 108 49T128 61V622Z" />
<glyph unicode="L" glyph-name="L" horiz-adv-x="625" d="M128 622Q118 632 109 634T58 637H25V683H36Q54 680 182 680Q330 680 348 683H360V637H333Q296 637 285 636Q257 635 249 633T233 622L232 342Q232 62 233 59Q234 54 237 52Q243 47 313 47Q384 47 410
53Q469 70 497 109T536 221Q536 226 537 238T540 261T542 272T562 273H582V268Q580 265 568 137T554 5V0H25V46H58Q99 47 108 49T128 61V622Z" />
<glyph unicode="M" glyph-name="M" horiz-adv-x="917" d="M132 622Q122 632 113 634T62 637H29V683H135Q240 683 244 680L249 675Q250 674 354 398L458 124L562 398Q666 674 668 675Q669 677 672 680Q676 683 781 683H887V637H854Q813 636 803 634T785 622V61Q792
51 802 49T854 46H887V0H876Q860 3 736 3T596 0H585V46H618Q659 47 668 49T688 61V347Q688 424 688 461T688 546T688 613L687 632Q454 14 450 7Q446 1 430 1T410 7Q409 9 292 316L176 624V606Q175 588 175 543T175 463T175 356L176 86Q188 50 261 46H278V0H269Q256
3 154 3Q50 3 37 0H29V46H46Q114 50 129 80L132 86V622Z" />
<glyph unicode="N" glyph-name="N" horiz-adv-x="750" d="M265 0Q252 3 150 3Q46 3 33 0H25V46H42Q110 50 125 80L128 86V634H124Q114 637 52 637H25V683H232L235 680Q237 679 322 554T493 303L578 178V598Q559 634 492 637H475V683H483Q501 680 600 680Q702 680
715 683H724V637H707Q634 633 622 598L621 302V6L614 0H600Q585 0 582 3Q576 9 376 303T171 605V345L172 86Q184 50 257 46H274V0H265Z" />
<glyph unicode="O" glyph-name="O" horiz-adv-x="778" d="M722 341Q722 190 624 84T388 -22Q362 -22 339 -18Q233 -1 157 79T61 273Q56 298 56 340Q56 475 138 581Q169 617 191 633Q266 695 362 704Q371 705 388 705Q497 705 587 633Q609 616 639 581Q705 499
720 383Q722 365 722 341ZM467 647Q426 665 388 665Q348 665 311 647Q258 621 224 568T179 439Q174 411 174 354Q174 143 277 61Q326 20 389 20Q411 20 417 21Q485 35 537 99Q603 187 603 354Q603 411 598 439Q577 592 467 647Z" />
<glyph unicode="P" glyph-name="P" horiz-adv-x="681" d="M130 622Q120 632 111 634T60 637H27V683H214Q406 683 413 682Q490 676 549 631T622 519Q624 511 624 489Q624 468 622 460Q610 403 562 362T451 307Q429 302 328 301H234V181Q234 62 237 58Q245 47 304
46H337V0H326Q309 3 182 3T38 0H27V46H60Q101 47 110 49T130 61V622ZM474 604Q448 626 421 631T333 637H307Q295 637 283 637T261 636T251 636Q237 635 234 628Q231 624 231 483V342H302Q379 342 385 343Q452 349 479 382T507 488Q507 535 501 560T474 604Z" />
<glyph unicode="Q" glyph-name="Q" horiz-adv-x="778" d="M388 -22Q250 -22 153 84T56 341Q56 374 57 383Q71 495 138 581Q169 617 191 633Q266 695 362 704Q371 705 388 705Q497 705 587 633Q609 616 639 581Q705 499 720 383Q722 365 722 341T720 299Q706 181
636 97Q594 48 536 15Q523 9 523 8Q536 -18 541 -26Q570 -76 615 -76Q653 -76 678 -57T706 -3Q707 10 716 10Q721 10 728 5L727 -13Q727 -84 701 -132T631 -191Q625 -193 606 -193Q565 -193 540 -168Q512 -142 498 -83Q483 -23 483 -8L471 -11Q459 -14 435 -18T388
-22ZM301 68Q301 105 327 130T391 155Q408 155 431 146Q468 127 495 70L501 58Q513 66 537 92Q607 177 607 339Q607 482 554 566Q500 651 410 664Q403 665 390 665Q325 665 271 620Q254 606 236 584Q170 496 170 339Q170 143 277 57Q301 39 305 39L304 42Q304 44
304 46Q301 53 301 68ZM338 67Q338 46 351 32T385 18Q418 18 445 28Q472 37 472 40Q472 50 461 69Q441 117 386 117Q365 117 352 102T338 67Z" />
<glyph unicode="R" glyph-name="R" horiz-adv-x="736" d="M130 622Q120 632 111 634T60 637H27V683H202Q388 682 407 679Q410 678 420 676Q465 667 500 648Q595 600 609 517Q610 512 610 501Q610 445 568 403T467 342Q465 341 463 341T458 339L456 338Q459 335
467 332Q539 292 556 226Q557 222 567 160T578 94Q585 58 595 41T623 18Q627 16 640 16H645Q658 16 669 27Q689 47 692 87Q692 98 695 101T712 105Q724 105 728 103T732 90Q732 54 715 25T672 -16Q656 -22 630 -22Q481 -16 458 90Q456 101 456 163T449 246Q440
273 420 292T373 320L363 322L297 323H231V192L232 61Q239 51 249 49T301 46H334V0H323Q307 3 181 3Q54 3 38 0H27V46H60Q101 47 110 49T130 61V622ZM490 539Q480 599 437 618T304 637Q289 637 270 637T250 636Q237 635 234 628Q231 624 231 492V360H289Q364 360
400 366T463 400Q480 417 485 438T491 499Q491 531 490 539Z" />
<glyph unicode="S" glyph-name="S" horiz-adv-x="556" d="M89 227Q95 221 95 214Q95 125 152 75T305 24Q317 24 321 25Q365 34 392 70T420 155Q420 198 398 233T340 281Q284 295 266 300Q191 318 189 319Q131 339 93 389T55 507Q55 567 86 614T163 684Q203 704
243 704Q322 704 371 670Q386 660 405 641L426 672Q431 679 436 687T446 700L449 704Q450 704 453 704T459 705Q466 705 472 699V462L466 456H448Q437 456 435 459T430 479Q413 605 329 646Q292 662 254 662Q202 662 169 629T135 542Q135 508 152 480T200 435Q210
431 286 412T370 389Q427 367 463 315T500 191Q500 109 455 53T337 -19Q327 -21 301 -21Q264 -21 233 -14T182 2T149 20T129 36T122 41Q118 36 107 21T87 -7T78 -21Q76 -22 68 -22Q61 -22 55 -16V101Q55 220 56 222Q58 227 76 227H89Z" />
<glyph unicode="T" glyph-name="T" horiz-adv-x="722" d="M36 443Q37 445 46 557T55 671V677H666V671Q667 669 676 557T685 443V437H645V443Q644 447 642 467Q635 564 610 593Q593 614 555 625Q534 630 478 630H451Q428 630 423 629T414 618Q413 616 413 339V63Q421
52 438 49Q474 46 528 46H558V0H545Q524 3 361 3T177 0H164V46H194Q248 46 284 49Q301 52 309 63V339Q309 616 308 618Q305 627 300 628T271 630H244Q197 630 187 629Q144 622 119 601Q87 574 79 467Q77 447 76 443V437H36V443Z" />
<glyph unicode="U" glyph-name="U" horiz-adv-x="750" d="M128 622Q118 632 109 634T58 637H25V683H36Q53 680 180 680T324 683H335V637H302Q261 636 251 634T233 622L232 418Q232 194 236 169Q245 104 280 67Q325 24 389 24Q406 24 422 27Q482 38 521 78T571
183Q575 206 575 410V598Q556 634 489 637H472V683H481Q494 680 598 680T715 683H724V637H707Q634 633 622 598L621 399Q620 194 617 180Q617 179 615 171Q598 91 536 35T389 -22Q324 -22 264 9Q152 67 130 192Q129 201 128 412V622Z" />
<glyph unicode="V" glyph-name="V" horiz-adv-x="750" d="M114 620Q103 631 94 633T48 637H19V683H28Q42 680 152 680Q272 680 294 683H305V637H284Q238 636 227 626Q223 623 223 620Q223 618 313 372T404 126L490 358Q575 588 575 597Q575 616 554 626T508 637H503V683H512Q529
680 627 680Q713 680 724 683H730V637H723Q649 637 627 596Q627 595 515 291T401 -14Q398 -22 383 -22H374H365Q351 -22 348 -14Q346 -12 231 303Q114 617 114 620Z" />
<glyph unicode="W" glyph-name="W" horiz-adv-x="1028" d="M792 683Q810 680 914 680Q991 680 1003 683H1009V637H996Q948 634 926 612Q918 604 915 598Q912 591 863 438T766 135T716 -17Q711 -22 694 -22Q676 -22 673 -15Q671 -13 593 231L514 477L435 234Q357
-11 355 -15Q351 -22 331 -22Q314 -21 310 -15Q309 -14 208 302T104 622Q98 632 87 633Q73 637 35 637H18V683H27Q69 681 154 681Q272 681 287 683H298V637H285Q239 637 223 629Q213 626 213 620Q213 616 289 381L364 144L427 339Q492 544 492 546L477 593Q468
621 464 625Q454 636 408 637H380V683H388Q402 680 508 680Q629 680 650 683H660V637H647Q576 637 576 619L727 146Q869 580 869 600Q869 602 867 606Q851 634 794 637H783V683H792Z" />
<glyph unicode="X" glyph-name="X" horiz-adv-x="750" d="M270 0Q257 3 141 3Q43 3 31 0H23V46H40Q129 49 161 88Q165 94 244 216T324 339Q324 341 235 480T143 622Q125 637 71 637H57H37V683H46Q61 680 172 680Q296 680 318 683H329V637H324Q307 637 286 632T263
621Q263 618 322 525T384 431Q385 431 437 511T489 593Q495 604 482 617Q467 634 436 637H428V683H437Q450 680 566 680Q664 680 676 683H684V637H667Q585 634 551 599Q548 596 478 491Q412 388 412 387Q412 385 514 225T620 62Q628 53 642 50T695 46H726V0H717Q702
3 591 3Q468 3 445 0H434V46H440Q457 46 478 51T499 64Q499 67 463 124T390 238L353 295L350 292Q348 290 343 283T331 265T312 236T286 195Q220 95 219 92Q218 91 218 84Q218 70 234 59T272 46H280V0H270Z" />
<glyph unicode="Y" glyph-name="Y" horiz-adv-x="750" d="M518 0Q502 3 374 3Q248 3 232 0H221V46H254Q313 47 321 58Q324 62 324 167V273L221 446Q117 620 114 623Q100 637 52 637H31H11V683H20Q36 680 148 680Q272 680 294 683H305V637H287Q239 636 236 621Q236
619 321 475L407 332L483 460Q561 591 561 592Q563 595 563 604Q563 633 517 637H508V683H517Q528 681 626 681Q695 681 731 683H738V637H723Q640 633 613 588Q612 587 517 427L425 273V169Q425 64 427 60Q430 52 444 49Q459 46 506 46H528V0H518Z" />
<glyph unicode="Z" glyph-name="Z" horiz-adv-x="611" d="M69 443Q69 452 74 554T80 683H549Q555 677 555 664Q555 649 554 648Q552 645 366 348T179 50T192 49T263 49Q352 50 361 51Q426 60 460 88T507 173Q513 200 520 273V282H560V274Q559 272 551 142T543
8V0H302L61 1L58 3Q55 8 55 21V35Q59 43 153 193T340 489T432 637Q288 637 275 636Q181 630 141 573Q109 521 109 445Q109 443 89 443H69Z" />
<glyph unicode="[" glyph-name="bracketleft" horiz-adv-x="278" d="M118 -250V750H255V710H158V-210H255V-250H118Z" />
<glyph unicode="\" glyph-name="backslash" horiz-adv-x="500" d="M56 731Q56 738 62 744T75 750Q85 750 92 740Q96 733 270 255T444 -231T438 -244T424 -250Q414 -250 407 -240Q404 -236 230 242T56 731Z" />
<glyph unicode="]" glyph-name="bracketright" horiz-adv-x="278" d="M22 710V750H159V-250H22V-210H119V710H22Z" />
<glyph unicode="^" glyph-name="asciicircum" horiz-adv-x="500" d="M112 560L249 694L257 686Q387 562 387 560L361 531Q357 533 303 581L250 627L195 580Q182 569 169 557T148 538L140 532Q138 530 125 546L112 560Z" />
<glyph unicode="_" glyph-name="underscore" horiz-adv-x="500" d="M0 -62V-25H499V-62H0Z" />
<glyph unicode="`" glyph-name="grave" horiz-adv-x="500" d="M106 655Q106 672 119 685T150 699Q166 699 177 688Q180 685 237 611T295 533Q295 532 282 519L267 505L196 563Q121 625 120 626Q106 640 106 655Z" />
<glyph unicode="a" glyph-name="a" horiz-adv-x="500" d="M139 305T116 305T78 321T63 359Q63 373 71 391Q84 418 123 433T218 448Q284 448 332 418T396 340Q401 326 401 309T402 194Q402 96 402 80T408 54Q414 40 428 40Q441 40 447 54Q453 66 453 109V145H493V106Q492
66 490 59Q481 31 457 13T400 -6Q375 -6 356 11T329 54V58Q326 55 317 45T304 30Q255 -11 190 -11Q138 -11 97 11T42 69Q34 88 34 107Q34 154 73 193Q96 216 130 231Q198 262 304 268H318V290Q318 324 312 340Q302 373 277 392T215 411Q148 411 148 403Q170 388
170 359Q170 337 155 321ZM318 175Q318 233 317 233Q314 233 312 232Q175 223 137 151Q126 131 126 106Q126 72 150 49T209 26Q249 26 277 50T315 109Q317 116 318 175Z" />
<glyph unicode="b" glyph-name="b" horiz-adv-x="556" d="M98 688Q115 689 135 690T165 693T176 694H179V543Q179 391 180 391Q183 393 186 396Q241 442 323 442Q341 442 356 439Q427 425 474 365T522 216Q522 197 520 181Q507 100 450 45T307 -11Q230 -11 175
48L168 55L158 37Q156 34 153 28T147 17T143 10L138 1L118 0H98V298Q98 599 97 603Q94 622 83 628T38 637H20V660Q20 683 22 683L32 684Q42 685 61 686T98 688ZM331 402Q307 405 300 405Q230 405 188 347L182 339V98L187 91Q217 43 264 30Q277 26 295 26Q359 26
396 80Q404 91 412 113Q424 148 424 212Q424 286 412 323Q391 386 331 402Z" />
<glyph unicode="c" glyph-name="c" horiz-adv-x="444" d="M373 305T350 305T312 320T297 358Q297 381 312 396Q317 401 317 402T307 404Q281 408 258 408Q207 408 178 376Q131 329 131 219Q131 137 162 90Q203 29 272 29Q297 29 316 39Q358 60 374 117Q376 125
379 127T395 129H409Q415 123 415 120Q415 101 390 61Q340 -11 249 -11Q199 -11 154 12Q55 63 35 182Q34 188 34 214T35 247Q47 341 117 400Q177 448 250 448Q379 448 401 380Q404 371 404 357Q404 334 389 320Z" />
<glyph unicode="d" glyph-name="d" horiz-adv-x="556" d="M244 442Q318 442 376 393V495Q376 599 375 603Q372 622 361 628T316 637H298V660Q298 683 300 683L310 684Q320 685 339 686T376 688Q393 689 413 690T443 693T454 694H457V390Q457 84 458 81Q461 61
472 55T517 46H535V0Q533 0 459 -5T380 -11H373V44L365 37Q308 -11 235 -11Q165 -11 111 36Q49 91 35 180Q34 188 34 215Q34 312 96 377T244 442ZM373 342Q328 405 260 405Q211 405 173 369Q148 343 140 308T131 211Q131 100 173 59Q204 26 251 26Q286 26 318 45T369
97L373 103V342Z" />
<glyph unicode="e" glyph-name="e" horiz-adv-x="444" d="M415 245Q415 238 408 231H126V216Q126 142 146 104Q182 30 270 30Q313 30 342 62Q362 82 373 114Q376 125 379 128T395 131Q415 131 415 121Q415 117 412 108Q393 56 352 23T250 -11Q231 -11 206 -6Q149
5 104 46T40 145Q28 181 28 218Q28 310 82 373T215 447Q219 448 229 448Q320 448 367 395T415 245ZM333 275Q324 384 259 407Q252 410 238 411Q186 411 153 363Q133 331 127 274V267H333V275Z" />
<glyph unicode="f" glyph-name="f" horiz-adv-x="306" d="M273 0Q255 3 146 3Q48 3 34 0H26V46H42Q70 46 91 49Q99 52 103 60Q104 62 104 224V385H33V431H104V497L105 564L107 574Q123 629 164 663T266 704Q267 704 275 704T289 705Q324 703 348 682T372 627Q372
604 358 590T321 576T284 590T270 627Q270 645 288 667H284Q275 669 262 667Q238 663 219 643T189 592Q183 572 182 497V431H293V385H185V225Q185 63 186 61Q190 53 198 51Q208 47 251 46H282V0H273Z" />
<glyph unicode="g" glyph-name="g" horiz-adv-x="500" d="M329 409Q373 453 429 453Q453 453 469 437T485 396Q485 380 475 370T449 360Q417 360 412 390Q410 404 415 411Q415 412 416 414V415Q412 414 407 413Q383 409 363 393Q355 388 355 386Q357 384 359 381Q392
340 392 292Q392 251 365 212Q318 143 222 143Q174 143 123 171Q112 151 112 133Q112 98 138 81Q147 75 155 75T227 73Q311 72 335 67Q396 58 431 26Q470 -13 470 -72Q470 -90 468 -96Q454 -145 392 -175Q333 -206 250 -206Q168 -206 107 -175Q45 -145 31 -96Q29
-90 29 -75Q29 -34 60 -5Q75 10 92 18L103 24Q67 55 67 108Q67 154 96 193Q52 237 52 292Q52 334 79 373Q100 404 138 423T223 442Q274 442 318 416L329 409ZM142 292Q142 238 159 210T222 182Q254 182 274 198T299 242Q302 258 302 292T299 343Q287 404 221 404Q192
404 171 388T145 343Q142 326 142 292ZM375 -23Q353 -8 326 -4T247 0H218Q151 0 138 -6Q118 -15 107 -34T95 -74Q95 -85 98 -94Q106 -117 134 -136T199 -163Q217 -167 250 -167Q282 -167 300 -163Q337 -155 365 -136T401 -93Q403 -88 403 -75Q403 -41 375 -23Z"
/>
<glyph unicode="h" glyph-name="h" horiz-adv-x="556" d="M188 60Q196 46 235 46H249H265V0H257Q244 3 145 3T33 0H25V46H41H55Q94 46 102 60V68Q102 77 102 91T102 124T102 167T103 217T103 272T103 329Q103 366 103 407T103 482T102 542T102 586T102 603Q99
622 88 628T43 637H25V660Q25 683 27 683L37 684Q47 685 66 686T103 688Q120 689 140 690T170 693T181 694H184V367Q246 442 328 442Q451 442 463 329Q464 322 464 190Q464 62 465 60Q469 52 477 49Q498 46 526 46H542V0H534Q521 3 422 3T310 0H302V46H318H326Q379
46 379 62Q380 64 380 200Q379 335 378 343Q371 375 356 389T308 404Q263 404 229 370Q194 335 188 282Q188 281 188 264T188 219T187 168Q187 153 187 137T187 107T188 84T188 66V60Z" />
<glyph unicode="i" glyph-name="i" horiz-adv-x="278" d="M131 669Q156 667 172 652T188 609Q188 573 161 558Q148 549 129 549Q109 549 96 558Q69 573 69 609Q69 637 86 653T131 669ZM247 0Q236 3 143 3Q52 3 34 0H26V46H42Q70 46 91 49Q99 52 103 60Q104 62
104 205Q104 355 100 365Q92 385 41 385H30V408Q30 431 32 431L42 432Q52 433 70 434T106 436Q123 437 142 438T171 441T182 442H185V62Q190 52 197 50T232 46H255V0H247Z" />
<glyph unicode="j" glyph-name="j" horiz-adv-x="306" d="M160 669Q185 667 201 652T217 609Q217 573 190 558Q177 549 158 549Q138 549 125 558Q98 573 98 609Q98 637 115 653T160 669ZM28 -163Q58 -168 64 -168Q76 -168 85 -165Q127 -150 135 -77Q137 -65 137
141T136 353Q132 373 119 378T72 385H52V408Q52 431 54 431L58 432Q62 432 70 432T87 433T108 434T133 436Q151 437 171 438T202 441T214 442H218V184Q217 -36 217 -59T211 -98Q196 -144 155 -174T58 -205Q13 -205 -21 -182T-55 -117Q-55 -94 -40 -79T-2 -64T36
-79T52 -118Q52 -143 28 -163Z" />
<glyph unicode="k" glyph-name="k" horiz-adv-x="528" d="M36 46H50Q89 46 97 60V68Q97 77 97 91T97 124T98 167T98 217T98 272T98 329Q98 366 98 407T98 482T98 542T97 586T97 603Q94 622 83 628T38 637H20V660Q20 683 22 683L32 684Q42 685 61 686T98 688Q115
689 135 690T165 693T176 694H179V463L180 233L240 287Q300 341 304 347Q310 356 310 364Q310 382 289 385H284V431H293Q306 428 412 428Q419 428 430 428T448 429T463 429T478 430T484 431H489V385H476Q407 380 360 341Q286 278 286 274Q286 273 349 181T420 79Q434
60 451 53T500 46H511V0H505Q493 3 418 3Q320 3 307 0H299V46H306Q330 48 330 65Q330 72 326 79Q323 84 276 153T228 222L176 176V120Q176 62 177 60Q181 52 189 49Q210 46 238 46H254V0H246Q235 3 137 3T28 0H20V46H36Z" />
<glyph unicode="l" glyph-name="l" horiz-adv-x="278" d="M42 46H56Q95 46 103 60V68Q103 77 103 91T103 124T104 167T104 217T104 272T104 329Q104 366 104 407T104 482T104 542T103 586T103 603Q100 622 89 628T44 637H26V660Q26 683 28 683L38 684Q48 685 67
686T104 688Q121 689 141 690T171 693T182 694H185V379Q185 62 186 60Q190 52 198 49Q219 46 247 46H263V0H255Q237 3 145 3Q47 3 34 0H26V46H42Z" />
<glyph unicode="m" glyph-name="m" horiz-adv-x="833" d="M188 60Q196 46 235 46H249H265V0H257Q244 3 145 3T33 0H25V46H41H55Q94 46 102 60V68Q102 77 102 91T102 122T103 161T103 203Q103 234 103 269T102 328V351Q99 370 88 376T43 385H25V408Q25 431 27 431L37
432Q47 433 65 434T102 436Q119 437 138 438T167 441T178 442H181V402Q181 364 182 364L183 365Q237 442 336 442Q433 439 455 366L457 361Q481 391 484 394Q535 442 603 442Q728 442 740 329Q741 322 741 190Q741 62 742 60Q746 52 754 49Q775 46 803 46H819V0H811Q798
3 699 3T587 0H579V46H595H603Q656 46 656 62Q657 64 657 200Q656 335 655 343Q648 375 633 389T585 404Q540 404 506 370Q471 335 465 282Q465 281 465 264T464 219T464 168Q464 153 464 137T464 107T464 84T465 66V60Q473 46 512 46H526H542V0H534Q521 3 422
3T310 0H302V46H318H326Q379 46 379 62Q380 64 380 200Q379 335 378 343Q371 375 356 389T308 404Q263 404 229 370Q194 335 188 282Q188 281 188 264T188 219T187 168Q187 153 187 137T187 107T188 84T188 66V60Z" />
<glyph unicode="n" glyph-name="n" horiz-adv-x="556" d="M188 60Q196 46 235 46H249H265V0H257Q244 3 145 3T33 0H25V46H41H55Q94 46 102 60V68Q102 77 102 91T102 122T103 161T103 203Q103 234 103 269T102 328V351Q99 370 88 376T43 385H25V408Q25 431 27 431L37
432Q47 433 65 434T102 436Q119 437 138 438T167 441T178 442H181V402Q181 364 182 364L183 365Q237 442 336 442Q451 438 463 329Q464 322 464 190Q464 62 465 60Q469 52 477 49Q498 46 526 46H542V0H534Q521 3 422 3T310 0H302V46H318H326Q379 46 379 62Q380
64 380 200Q379 335 378 343Q371 375 356 389T308 404Q263 404 229 370Q194 335 188 282Q188 281 188 264T188 219T187 168Q187 153 187 137T187 107T188 84T188 66V60Z" />
<glyph unicode="o" glyph-name="o" horiz-adv-x="500" d="M28 214Q28 305 86 370T225 446Q241 448 250 448Q337 448 401 384Q471 314 471 215Q471 195 466 168Q454 105 410 59T302 -4Q279 -10 250 -10Q220 -10 197 -4Q122 15 75 75T28 214ZM268 410Q263 411 252
411Q222 411 195 399Q139 371 128 290Q126 272 126 226Q126 131 145 91Q177 30 250 30Q372 30 372 193V225Q372 290 367 313Q350 392 268 410Z" />
<glyph unicode="p" glyph-name="p" horiz-adv-x="556" d="M36 -148H50Q89 -148 97 -134V-126Q97 -119 97 -107T97 -77T98 -38T98 6T98 55T98 106Q98 140 98 177T98 243T98 296T97 335T97 351Q94 370 83 376T38 385H20V408Q20 431 22 431L32 432Q42 433 61 434T98
436Q115 437 135 438T165 441T176 442H179V416L180 390L188 397Q249 441 326 441Q348 441 358 439Q428 425 475 364T522 216Q522 197 520 181Q510 116 472 69T372 -1Q342 -11 310 -11Q242 -11 190 33L182 40V-45Q182 -132 183 -134Q187 -142 195 -145Q216 -148
244 -148H260V-194H252Q239 -191 140 -191T28 -194H20V-148H36ZM424 218Q424 287 394 340T319 401Q317 401 313 401T305 402Q234 402 182 337V98Q223 26 294 26Q336 26 370 63Q424 119 424 218Z" />
<glyph unicode="q" glyph-name="q" horiz-adv-x="528" d="M373 49Q313 -11 236 -11Q180 -11 135 19T65 93Q33 149 33 218V224Q37 292 70 343T156 421Q198 441 236 441Q266 441 273 440Q340 427 381 372L387 364Q388 364 404 403L420 442H457V156Q457 -132 458
-134Q462 -142 470 -145Q491 -148 519 -148H535V-194H527Q514 -191 415 -191T303 -194H295V-148H311Q339 -148 360 -145Q368 -142 372 -134Q373 -132 373 -41V49ZM376 300Q346 389 278 401Q275 401 269 401T261 402Q201 400 160 333Q131 284 131 214Q131 148 159
95T230 29Q236 27 253 27Q268 27 274 28Q343 44 376 118V300Z" />
<glyph unicode="r" glyph-name="r" horiz-adv-x="392" d="M36 46H50Q89 46 97 60V68Q97 77 97 91T98 122T98 161T98 203Q98 234 98 269T98 328L97 351Q94 370 83 376T38 385H20V408Q20 431 22 431L32 432Q42 433 60 434T96 436Q112 437 131 438T160 441T171 442H174V373Q193
405 216 423T277 441Q305 441 325 430Q364 410 364 373Q364 351 349 337T313 322T278 336T263 372Q263 389 271 400Q273 404 273 405Q271 407 250 401Q234 393 226 386Q186 348 180 260V221Q179 182 179 154Q179 141 179 127T179 101T180 81T180 66V61Q184 53 192
51Q202 47 245 46H276V0H267Q249 3 140 3Q42 3 28 0H20V46H36Z" />
<glyph unicode="s" glyph-name="s" horiz-adv-x="394" d="M190 414Q98 414 98 349Q98 336 100 332Q109 308 131 298T199 278Q256 268 277 256Q340 226 358 157Q359 151 359 133Q359 94 345 64Q306 -10 198 -10Q138 -10 94 26L86 19L77 10Q71 4 65 -1L54 -11H46Q39
-11 33 -5V74Q33 139 33 149T38 161Q40 162 54 162Q67 162 69 160T75 146Q83 108 101 77Q136 26 198 26Q295 26 295 104Q295 133 277 151Q261 170 235 178Q218 182 187 189Q131 200 111 210Q45 241 34 303Q33 307 33 318Q33 433 174 447Q178 449 198 447Q238 447
268 432L283 424L292 431Q305 442 314 448H322Q329 448 335 442V310L329 304H301Q295 310 295 316Q295 362 267 388T190 414Z" />
<glyph unicode="t" glyph-name="t" horiz-adv-x="389" d="M141 600V615H181V431H316V385H181V241Q182 116 182 100T189 68Q203 29 238 29Q282 29 292 100Q293 108 293 146V181H333V146Q333 100 328 80Q317 40 291 15T221 -10Q167 -10 135 19T98 100Q97 107 97
248V385H18V422H27Q64 425 90 454Q136 502 141 600Z" />
<glyph unicode="u" glyph-name="u" horiz-adv-x="556" d="M105 436Q122 437 142 438T172 441T184 442H187V261Q188 77 189 71Q193 50 204 40Q224 26 264 26Q292 26 311 35Q369 63 379 144Q379 145 379 161T380 201T380 248T380 294T380 335L379 351Q376 370 365
376T320 385H302V431Q304 431 378 436T457 442H464V264Q464 84 465 81Q468 61 479 55T524 46H542V0Q540 0 467 -5T390 -11H383V58Q341 7 302 -3Q283 -10 249 -10Q185 -10 150 13T105 89Q104 96 103 226Q102 335 102 348T96 369Q86 385 36 385H25V408Q25 431 27
431L38 432Q48 433 67 434T105 436Z" />
<glyph unicode="v" glyph-name="v" horiz-adv-x="528" d="M338 431Q343 429 386 429H422Q479 429 503 431H508V385H497Q441 382 423 345Q421 341 356 172T288 -2Q283 -11 263 -11Q244 -11 239 -2Q99 359 98 364Q94 374 87 378T73 383T43 385H19V431H25Q35 428
122 428Q217 428 232 431H240V385H226Q187 384 184 370Q184 366 235 234L286 102L377 341V349Q377 365 364 375T335 385H331V431H338Z" />
<glyph unicode="w" glyph-name="w" horiz-adv-x="722" d="M452 385Q404 385 404 369Q404 361 449 233T496 100L537 219Q579 341 579 347Q579 364 565 373T530 385H522V431H529Q542 428 624 428Q692 428 698 431H703V385H697Q696 385 691 385T682 384Q635 377 619
334L559 161Q502 -2 501 -3Q497 -11 479 -11Q460 -11 456 -4Q455 -3 407 133L361 267Q341 215 308 118T266 -4Q261 -11 243 -11Q224 -11 220 -3L90 368Q83 379 75 381T40 385H18V431H24Q35 428 116 428Q206 428 221 431H229V385H215Q177 383 177 368Q177 367 221
239L265 113L339 328L333 345Q324 371 321 375Q312 384 278 385H258V431H264Q274 428 348 428Q441 428 454 431H461V385H452Z" />
<glyph unicode="x" glyph-name="x" horiz-adv-x="528" d="M201 0Q186 3 102 3Q28 3 17 0H11V46H25Q96 51 129 84Q133 88 180 150L226 210L168 288Q109 369 107 371Q98 380 80 383Q74 383 44 385H16V431H23Q59 429 126 429H170Q223 429 229 431H237V385Q201 380
201 369Q201 366 232 322T272 270L297 304Q324 339 325 342Q329 349 329 358Q329 374 317 381Q315 382 312 383T307 385H302V431H309Q322 428 408 428Q484 428 493 431H499V385H492Q443 385 411 368Q396 361 385 350T350 308Q343 298 329 279T312 257L296 236L358
151Q423 63 425 61Q440 46 499 46H516V0H510Q500 3 414 3Q322 3 304 0H295V46H298Q309 46 320 51T331 63Q331 65 291 120L250 175Q249 174 219 133T185 88Q181 81 181 73Q181 62 188 54T206 46Q208 46 208 23V0H201Z" />
<glyph unicode="y" glyph-name="y" horiz-adv-x="528" d="M48 -66T69 -66T104 -80T118 -116Q118 -130 110 -143T91 -160Q87 -162 91 -164Q98 -168 111 -168Q126 -168 140 -162Q170 -150 188 -122T225 -43L242 0L170 183L95 370Q88 385 43 385H34H19V431H26Q37
428 122 428Q216 428 233 431H241V385H232Q185 385 185 368Q185 354 210 290T261 169L286 112Q286 113 332 227L376 341V350Q376 366 364 375T334 385H331V431H337Q346 429 422 429Q477 429 503 431H508V385H497Q441 380 422 345Q420 343 378 235T289 9T227 -131Q188
-191 134 -203Q129 -204 113 -204Q72 -204 46 -180T19 -116Q19 -93 33 -80Z" />
<glyph unicode="z" glyph-name="z" horiz-adv-x="444" d="M42 263Q42 265 47 342T53 423V431H393Q399 425 399 415Q399 403 398 402L381 378Q364 355 331 309T265 220L134 41L182 40Q244 40 268 43Q311 51 331 77Q352 105 359 185L361 201Q361 202 381 202H401V196Q401
195 393 101T384 6V0H209L34 1L31 3Q28 8 28 17Q28 30 29 31Q31 33 161 211T294 394H236Q169 393 152 388Q127 382 113 367Q89 344 82 264V255H42V263Z" />
<glyph unicode="{" glyph-name="braceleft" horiz-adv-x="500" d="M434 -231Q434 -244 428 -250H410Q334 -250 280 -225T212 -145Q210 -138 209 0Q209 21 209 53Q208 142 204 153Q203 154 203 155Q191 186 157 208T82 231Q71 231 68 234T65 250T68 266T82 269Q123
269 157 291T203 345Q207 357 207 370T209 501Q210 638 212 645Q220 677 244 698Q270 724 324 740Q361 748 377 749Q379 749 390 749T408 750H428Q434 744 434 732Q434 719 431 716Q429 713 415 713Q359 710 322 681Q302 666 296 647Q291 634 291 499Q291 369 290
363Q285 324 256 296T184 255L170 250L184 245Q226 232 255 205T290 137Q291 131 291 1Q291 -134 296 -147Q306 -175 340 -193T415 -213Q429 -213 431 -216Q434 -219 434 -231Z" />
<glyph unicode="|" glyph-name="bar" horiz-adv-x="278" d="M152 -249T139 -249T119 -235V251L120 737Q130 750 139 750Q152 750 159 735V-235Q152 -249 139 -249Z" />
<glyph unicode="}" glyph-name="braceright" horiz-adv-x="500" d="M65 731Q65 744 67 747T79 750H88Q168 750 221 723T288 645Q291 636 291 501T293 357Q303 321 338 295T417 269Q428 269 431 266T434 250T431 234T417 231Q378 231 344 209T298 157Q293 144 293
131T291 0Q290 -138 288 -145Q280 -177 256 -198Q202 -250 89 -250H78Q70 -250 68 -247T65 -230Q65 -219 67 -216T77 -213Q126 -213 161 -192T207 -139Q208 -134 209 3L210 139Q230 223 330 250Q297 261 280 270Q225 303 212 352L210 362L209 498Q208 635 207 640Q197
672 162 692T77 713Q69 713 67 716T65 731Z" />
<glyph unicode="~" glyph-name="asciitilde" horiz-adv-x="500" d="M142 304Q164 318 187 318Q208 318 253 300Q296 282 320 282Q355 282 381 311L388 318L402 306L416 295Q416 294 396 270Q363 231 344 222Q330 215 313 215Q290 215 247 233Q203 251 179 251Q144
251 118 222L111 215L97 227L83 238Q83 239 95 253T121 283T142 304Z" />
<glyph unicode="&#xa0;" glyph-name="uni00A0" horiz-adv-x="250" />
<glyph unicode="&#xa8;" glyph-name="dieresis" horiz-adv-x="500" d="M95 612Q95 634 111 651T153 669Q177 669 193 652T210 612Q210 589 194 572T152 554L127 560Q95 577 95 612ZM289 611Q289 631 302 647T335 668Q336 668 340 668T346 669Q369 669 386 652T404
612Q404 588 387 571T346 554Q324 554 307 570T289 611Z" />
<glyph unicode="&#xac;" glyph-name="logicalnot" horiz-adv-x="667" d="M56 323T56 336T70 356H596Q603 353 611 343V102Q598 89 591 89Q581 89 572 102L571 209V316H70Q56 323 56 336Z" />
<glyph unicode="&#xaf;" glyph-name="overscore" horiz-adv-x="500" d="M69 544V590H430V544H69Z" />
<glyph unicode="&#xb0;" glyph-name="degree" horiz-adv-x="500" d="M148 647Q156 676 182 695T244 715Q320 715 346 660Q352 647 352 629Q352 610 346 597Q320 542 249 542Q210 542 183 561T148 610Q147 614 147 628Q147 643 148 647ZM250 579Q287 579 300 588T313
628Q313 669 282 677Q277 678 253 678Q248 678 242 678T234 679Q209 679 198 668T187 629Q187 600 198 590Q210 579 250 579Z" />
<glyph unicode="&#xb1;" glyph-name="plusminus" horiz-adv-x="778" d="M56 320T56 333T70 353H369V502Q369 651 371 655Q378 666 388 666Q395 666 403 660Q408 655 408 637T409 500V353H707Q722 346 722 333T707 313H409V40H707Q722 32 722 20T707 0H70Q56 7
56 20T70 40H369V313H70Q56 320 56 333Z" />
<glyph unicode="&#xb4;" glyph-name="acute" horiz-adv-x="500" d="M349 699Q365 699 379 686T393 656Q393 640 379 626Q378 625 303 563L232 505L217 519Q203 533 204 533Q204 534 229 567T282 636T313 678Q331 699 349 699Z" />
<glyph unicode="&#xd7;" glyph-name="multiply" horiz-adv-x="778" d="M630 29Q630 21 624 15T609 9Q604 9 587 25T493 118L389 222L284 117Q178 13 175 11Q169 9 167 9Q159 9 153 15T147 29Q147 31 149 37Q152 43 255 146L359 250L255 354Q152 457 149 463Q147
469 147 471Q147 479 153 485T167 491Q169 491 175 489Q178 487 284 383L389 278L493 382Q570 459 587 475T609 491Q618 491 624 485T630 471Q630 467 628 463T522 355L418 250L522 145Q626 41 628 37T630 29Z" />
<glyph unicode="&#xf7;" glyph-name="divide" horiz-adv-x="778" d="M318 466Q318 497 337 517T386 537Q438 537 455 488Q458 480 458 466Q458 434 439 415T388 396Q339 396 321 444Q318 452 318 466ZM56 237T56 250T70 270H706Q721 262 721 250T706 230H70Q56
237 56 250ZM318 34Q318 65 337 85T386 105Q438 105 455 56Q458 48 458 34Q458 2 439 -17T388 -36Q339 -36 321 12Q318 20 318 34Z" />
<glyph unicode="&#x131;" glyph-name="dotlessi" horiz-adv-x="278" d="M247 0Q236 3 143 3Q52 3 34 0H26V46H42Q70 46 91 49Q99 52 103 60Q104 62 104 205Q104 355 100 365Q92 385 41 385H30V408Q30 431 32 431L42 432Q52 433 70 434T106 436Q123 437 142 438T171
441T182 442H185V62Q190 52 197 50T232 46H255V0H247Z" />
<glyph unicode="&#x237;" glyph-name="uni0237" horiz-adv-x="306" d="M28 -163Q58 -168 64 -168Q76 -168 85 -165Q127 -150 135 -77Q137 -65 137 141T136 353Q132 373 119 378T72 385H52V408Q52 431 54 431L58 432Q62 432 70 432T87 433T108 434T133 436Q151
437 171 438T202 441T214 442H218V184Q217 -36 217 -59T211 -98Q196 -144 155 -174T58 -205Q13 -205 -21 -182T-55 -117Q-55 -94 -40 -79T-2 -64T36 -79T52 -118Q52 -143 28 -163Z" />
<glyph unicode="&#x2c6;" glyph-name="circumflex" horiz-adv-x="500" d="M112 560L249 694L257 686Q387 562 387 560L361 531Q357 533 303 581L250 627L195 580Q182 569 169 557T148 538L140 532Q138 530 125 546L112 560Z" />
<glyph unicode="&#x2c7;" glyph-name="caron" horiz-adv-x="500" d="M114 611L127 630L136 644Q138 644 193 612Q248 581 250 581L306 612Q361 644 363 644L385 611L318 562L249 513L114 611Z" />
<glyph unicode="&#x2c9;" glyph-name="uni02C9" horiz-adv-x="500" d="M69 544V590H430V544H69Z" />
<glyph unicode="&#x2ca;" glyph-name="uni02CA" horiz-adv-x="500" d="M349 699Q365 699 379 686T393 656Q393 640 379 626Q378 625 303 563L232 505L217 519Q203 533 204 533Q204 534 229 567T282 636T313 678Q331 699 349 699Z" />
<glyph unicode="&#x2cb;" glyph-name="uni02CB" horiz-adv-x="500" d="M106 655Q106 672 119 685T150 699Q166 699 177 688Q180 685 237 611T295 533Q295 532 282 519L267 505L196 563Q121 625 120 626Q106 640 106 655Z" />
<glyph unicode="&#x2d8;" glyph-name="breve" horiz-adv-x="500" d="M130 675Q138 629 170 598T248 567Q282 567 311 585T356 636Q370 666 370 689V694H407V683Q403 626 373 582T297 522Q277 515 250 515Q222 515 202 522Q156 538 126 582T92 683V694H129V689Q129
688 129 683T130 675Z" />
<glyph unicode="&#x2d9;" glyph-name="dotaccent" horiz-adv-x="500" d="M252 669Q277 667 293 652T309 609Q309 573 282 558Q269 549 250 549Q230 549 217 558Q190 573 190 609Q190 637 207 653T252 669Z" />
<glyph unicode="&#x2da;" glyph-name="ring" horiz-adv-x="500" d="M148 647Q156 676 182 695T244 715Q320 715 346 660Q352 647 352 629Q352 610 346 597Q320 542 249 542Q210 542 183 561T148 610Q147 614 147 628Q147 643 148 647ZM250 579Q287 579 300 588T313
628Q313 669 282 677Q277 678 253 678Q248 678 242 678T234 679Q209 679 198 668T187 629Q187 600 198 590Q210 579 250 579Z" />
<glyph unicode="&#x2dc;" glyph-name="tilde" horiz-adv-x="500" d="M142 654Q164 668 187 668Q208 668 253 650Q296 632 320 632Q355 632 381 661L388 668L402 656L416 645Q416 644 396 620Q363 581 344 572Q330 565 313 565Q290 565 247 583Q203 601 179 601Q144
601 118 572L111 565L97 577L83 588Q83 589 95 603T121 633T142 654Z" />
<glyph unicode="&#x300;" glyph-name="gravecomb" horiz-adv-x="0" d="M-394 655Q-394 672 -381 685T-350 699Q-334 699 -323 688Q-320 685 -263 611T-205 533Q-205 532 -218 519L-233 505L-304 563Q-379 625 -380 626Q-394 640 -394 655Z" />
<glyph unicode="&#x301;" glyph-name="acutecomb" horiz-adv-x="0" d="M-151 699Q-135 699 -121 686T-107 656Q-107 640 -121 626Q-122 625 -197 563L-268 505L-283 519Q-297 533 -296 533Q-296 534 -271 567T-218 636T-187 678Q-169 699 -151 699Z" />
<glyph unicode="&#x302;" glyph-name="uni0302" horiz-adv-x="0" d="M-388 560L-251 694L-243 686Q-113 562 -113 560L-139 531Q-143 533 -197 581L-250 627L-305 580Q-318 569 -331 557T-352 538L-360 532Q-362 530 -375 546L-388 560Z" />
<glyph unicode="&#x303;" glyph-name="tildecomb" horiz-adv-x="0" d="M-358 654Q-336 668 -313 668Q-292 668 -247 650Q-204 632 -180 632Q-145 632 -119 661L-112 668L-98 656L-84 645Q-84 644 -104 620Q-137 581 -156 572Q-170 565 -187 565Q-210 565 -253
583Q-297 601 -321 601Q-356 601 -382 572L-389 565L-403 577L-417 588Q-417 589 -405 603T-379 633T-358 654Z" />
<glyph unicode="&#x304;" glyph-name="uni0304" horiz-adv-x="0" d="M-431 544V590H-70V544H-431Z" />
<glyph unicode="&#x306;" glyph-name="uni0306" horiz-adv-x="0" d="M-370 675Q-362 629 -330 598T-252 567Q-218 567 -189 585T-144 636Q-130 666 -130 689V694H-93V683Q-97 626 -127 582T-203 522Q-223 515 -250 515Q-278 515 -298 522Q-344 538 -374 582T-408
683V694H-371V689Q-371 688 -371 683T-370 675Z" />
<glyph unicode="&#x307;" glyph-name="uni0307" horiz-adv-x="0" d="M-248 669Q-223 667 -207 652T-191 609Q-191 573 -218 558Q-231 549 -250 549Q-270 549 -283 558Q-310 573 -310 609Q-310 637 -293 653T-248 669Z" />
<glyph unicode="&#x308;" glyph-name="uni0308" horiz-adv-x="0" d="M-405 612Q-405 634 -389 651T-347 669Q-323 669 -307 652T-290 612Q-290 589 -306 572T-348 554L-373 560Q-405 577 -405 612ZM-211 611Q-211 631 -198 647T-165 668Q-164 668 -160 668T-154
669Q-131 669 -114 652T-96 612Q-96 588 -113 571T-154 554Q-176 554 -193 570T-211 611Z" />
<glyph unicode="&#x30a;" glyph-name="uni030A" horiz-adv-x="0" d="M-352 647Q-344 676 -318 695T-256 715Q-180 715 -154 660Q-148 647 -148 629Q-148 610 -154 597Q-180 542 -251 542Q-290 542 -317 561T-352 610Q-353 614 -353 628Q-353 643 -352 647ZM-250
579Q-213 579 -200 588T-187 628Q-187 669 -218 677Q-223 678 -247 678Q-252 678 -258 678T-266 679Q-291 679 -302 668T-313 629Q-313 600 -302 590Q-290 579 -250 579Z" />
<glyph unicode="&#x30b;" glyph-name="uni030B" horiz-adv-x="0" d="M-292 701Q-274 701 -260 688T-246 658Q-246 649 -250 641Q-252 637 -297 574T-344 510Q-378 527 -378 528Q-378 530 -355 598T-327 676Q-316 701 -292 701ZM-126 701Q-108 701 -94 688T-80
658Q-80 649 -84 641Q-86 637 -131 574T-178 510Q-212 527 -212 528Q-212 530 -189 598T-161 676Q-150 701 -126 701Z" />
<glyph unicode="&#x30c;" glyph-name="uni030C" horiz-adv-x="0" d="M-386 611L-373 630L-364 644Q-362 644 -307 612Q-252 581 -250 581L-194 612Q-139 644 -137 644L-115 611L-182 562L-251 513L-386 611Z" />
<glyph unicode="&#x338;" glyph-name="uni0338" horiz-adv-x="0" d="M-619 -215Q-639 -215 -639 -197Q-639 -190 -634 -183Q-621 -157 -400 274T-176 707Q-172 716 -160 716Q-152 716 -146 710T-140 696Q-140 691 -372 241T-608 -212Q-612 -215 -619 -215Z" />
<glyph unicode="&#x393;" glyph-name="Gamma" horiz-adv-x="625" d="M128 619Q118 629 109 631T58 634H25V680H554V676L568 560Q582 445 582 444V440H542V444Q542 445 541 449T540 459T538 469Q525 572 486 603T334 634Q253 634 245 632Q235 630 233 621Q232 618
232 339L233 61Q241 53 249 51T285 47Q296 46 333 46H360V0H348Q322 3 182 3Q55 3 36 0H25V46H58Q99 47 108 49T128 61V619Z" />
<glyph unicode="&#x394;" glyph-name="increment" horiz-adv-x="833" d="M51 0Q46 2 46 7Q46 9 215 357T388 709Q392 716 407 716H416Q439 716 444 709Q447 705 616 357T786 7Q786 2 781 0H51ZM507 344L384 596L137 92L383 91H630Q630 93 507 344Z" />
<glyph unicode="&#x398;" glyph-name="Theta" horiz-adv-x="778" d="M722 341Q722 190 624 84T388 -22Q362 -22 339 -18Q233 -1 157 79T61 273Q56 298 56 340Q56 475 138 581Q169 617 191 633Q266 695 362 704Q371 705 388 705Q497 705 587 633Q609 616 639 581Q705
499 720 383Q722 365 722 341ZM418 665Q406 668 384 668Q380 668 374 668T366 667Q275 653 221 566Q168 487 168 339Q168 274 176 235Q189 158 228 105T324 28Q356 16 388 16Q439 16 485 44T561 123Q610 206 610 339Q610 436 583 512Q562 571 517 613T418 665ZM223
263V422H263V388H514V422H554V263H514V297H263V263H223Z" />
<glyph unicode="&#x39b;" glyph-name="Lambda" horiz-adv-x="694" d="M320 708Q326 716 339 716H348Q362 716 365 715T372 708Q374 706 423 547T523 226T575 62T579 57T583 53T589 50T595 48T602 47T611 47T622 46T634 46H661V0H653Q638 3 532 3Q412 3 390 0H379V46H392Q464
46 464 65Q463 70 390 305T316 539L246 316Q177 95 177 84Q177 81 179 77Q185 64 204 55T248 46H253V0H245Q228 3 130 3Q49 3 38 0H32V46H45Q112 51 127 91Q128 92 224 399T320 708Z" />
<glyph unicode="&#x39e;" glyph-name="Xi" horiz-adv-x="667" d="M47 509L55 676Q55 677 333 677T611 676L619 509Q619 508 599 508T579 510Q579 529 575 557T564 589Q550 594 333 594T102 589Q95 586 91 558T87 510Q87 508 67 508T47 509ZM139 260V445H179V394H487V445H527V260H487V311H179V260H139ZM50
0L42 180H62Q82 180 82 178Q82 133 89 105Q92 93 95 90T108 86Q137 83 333 83Q530 83 558 86Q568 87 571 90T577 105Q584 133 584 178Q584 180 604 180H624L616 0H50Z" />
<glyph unicode="&#x3a0;" glyph-name="Pi" horiz-adv-x="750" d="M128 619Q118 629 109 631T58 634H25V680H724V634H691Q650 633 640 631T622 619V61Q629 51 639 49T691 46H724V0H713Q696 3 569 3T425 0H414V46H447Q488 47 497 49T517 61V634H232V348L233 61Q240
51 250 49T302 46H335V0H324Q307 3 180 3T36 0H25V46H58Q99 47 108 49T128 61V619Z" />
<glyph unicode="&#x3a3;" glyph-name="Sigma" horiz-adv-x="722" d="M666 247Q664 244 652 126T638 4V0H351Q131 0 95 0T57 5V6Q54 12 57 17L73 36Q89 54 121 90T182 159L305 299L56 644L55 658Q55 677 60 681Q63 683 351 683H638V679Q638 678 652 563T666 447V443H626V447Q612
543 581 583T464 633Q425 637 294 637H189L293 494Q317 461 344 423T384 366L398 348Q402 341 399 337L154 57Q407 57 428 58Q489 61 520 70T575 103Q613 143 624 235Q624 238 624 242T626 248V251H666V247Z" />
<glyph unicode="&#x3a5;" glyph-name="Upsilon" horiz-adv-x="778" d="M78 536H73Q62 536 59 538T55 551Q55 616 95 660T194 705Q240 705 277 681T334 624T367 556T385 498L389 474Q390 475 392 489Q417 603 472 658Q519 705 584 705Q615 705 641 692Q674 675
698 636T722 551Q722 540 719 538T699 536Q680 536 677 541Q677 542 677 544T676 548Q676 578 650 597T588 616Q536 616 505 582Q455 530 443 403Q442 385 442 222V61Q450 53 458 51T494 47Q505 46 542 46H569V0H557Q538 3 389 3T221 0H209V46H236Q273 46 284 47Q312
48 319 50T337 61V209Q337 383 333 415Q315 597 213 615Q207 616 189 616Q154 616 128 597T101 548Q101 540 96 538T78 536Z" />
<glyph unicode="&#x3a6;" glyph-name="Phi" horiz-adv-x="722" d="M526 0Q508 3 361 3T196 0H184V46H211Q248 46 259 47Q287 48 294 50T312 61V150H310Q309 151 294 153Q222 161 160 195Q74 243 57 317Q56 323 56 342Q56 360 57 366Q74 440 160 488Q222 522 294
530Q309 532 310 533H312V622Q306 627 304 628T295 632T282 634T259 636Q248 637 211 637H184V683H196Q214 680 361 680T526 683H538V637H511Q474 637 463 636Q435 635 427 633T411 622V533L425 531Q502 521 563 486T650 402Q665 374 665 342Q665 308 650 281Q625
232 564 197T425 152L411 150V61Q419 53 427 51T463 47Q474 46 511 46H538V0H526ZM170 342Q170 272 204 235T307 188H312V495H309Q299 495 279 489Q223 475 197 440T170 342ZM415 188Q484 199 517 235T551 342Q551 409 521 444T430 492Q416 494 415 495H410V188H415Z"
/>
<glyph unicode="&#x3a8;" glyph-name="Psi" horiz-adv-x="778" d="M69 509Q60 509 58 512T55 526T56 540Q59 544 65 545T107 546Q150 546 157 544Q192 535 204 493Q214 469 215 411Q218 284 272 230Q299 204 330 195L339 192Q340 192 340 407V622Q334 627 332
628T323 632T310 634T287 636Q276 637 239 637H212V683H224Q242 680 389 680T554 683H566V637H539Q502 637 491 636Q463 635 455 633T439 622L438 407Q438 192 439 192Q444 192 466 203Q557 248 562 411Q563 469 573 493Q585 535 620 544Q627 546 671 546H715L722
540V515Q714 509 708 509Q685 506 674 482Q661 457 660 406Q657 347 644 307Q599 177 451 153L438 151V106L439 61Q447 53 455 51T491 47Q502 46 539 46H566V0H554Q536 3 389 3T224 0H212V46H239Q276 46 287 47Q315 48 322 50T340 61V151Q124 179 117 406Q116 457
103 482Q92 506 69 509Z" />
<glyph unicode="&#x3a9;" glyph-name="Omega" horiz-adv-x="722" d="M270 20Q270 7 263 0H77V2Q76 3 61 89L44 175V177H84L85 172Q85 167 89 153Q96 108 104 93Q108 88 111 86Q124 81 178 80H222V83Q217 99 200 136Q184 167 145 228Q81 331 65 385Q55 422 55 454Q55
484 63 511Q85 586 156 640T322 703Q328 704 337 704H352Q493 704 583 627Q640 577 658 511Q666 484 666 454Q666 422 656 385Q640 331 576 228Q537 167 521 136Q504 99 499 83V80H543Q597 81 610 86Q614 88 617 93Q624 108 632 153Q636 167 636 172L637 177H677V175L660
89Q645 3 644 2V0H552Q478 0 467 0T453 6Q451 10 451 20Q451 49 460 99Q468 139 499 234Q531 331 541 386Q548 428 548 455Q548 596 445 648Q403 668 361 668Q259 668 205 583Q174 534 174 456Q174 422 180 386Q190 331 222 234Q253 139 261 99Q270 50 270 20Z"
/>
<glyph unicode="&#x2002;" glyph-name="uni2002" horiz-adv-x="500" />
<glyph unicode="&#x2003;" glyph-name="uni2003" horiz-adv-x="999" />
<glyph unicode="&#x2004;" glyph-name="uni2004" horiz-adv-x="333" />
<glyph unicode="&#x2005;" glyph-name="uni2005" horiz-adv-x="250" />
<glyph unicode="&#x2006;" glyph-name="uni2006" horiz-adv-x="167" />
<glyph unicode="&#x2009;" glyph-name="uni2009" horiz-adv-x="167" />
<glyph unicode="&#x200a;" glyph-name="uni200A" horiz-adv-x="83" />
<glyph unicode="&#x2013;" glyph-name="endash" horiz-adv-x="500" d="M0 248V285H499V248H0Z" />
<glyph unicode="&#x2014;" glyph-name="emdash" horiz-adv-x="1000" d="M0 248V285H999V248H0Z" />
<glyph unicode="&#x2018;" glyph-name="quoteleft" horiz-adv-x="278" d="M198 440Q198 415 181 397T139 379Q101 379 80 418Q64 449 64 494Q64 513 66 527Q78 603 123 660Q154 694 160 694Q163 694 172 685T182 672Q182 668 170 656Q105 590 101 501Q101 489
102 489Q105 491 109 493Q122 500 138 500Q164 500 181 483T198 440Z" />
<glyph unicode="&#x2019;" glyph-name="quoteright" horiz-adv-x="278" d="M78 634Q78 659 95 676T138 694Q162 694 183 675Q212 642 212 579T185 464Q165 423 136 394Q121 379 118 379Q114 379 105 388T95 401Q95 405 107 417Q172 483 176 572Q176 584 175 584Q172
582 168 580Q155 573 139 573Q114 573 96 590T78 634Z" />
<glyph unicode="&#x201c;" glyph-name="quotedblleft" horiz-adv-x="500" d="M223 694Q227 694 236 684T245 671T233 656Q168 590 164 501Q164 489 165 489Q168 491 172 493Q185 500 201 500Q227 500 244 483T262 440T245 397T202 379Q164 379 143 418Q128 447
128 494Q128 520 129 527Q141 603 186 660Q217 694 223 694ZM466 465T466 440T449 397T406 379Q368 379 347 418Q332 447 332 494Q332 520 333 527Q345 603 390 660Q421 694 427 694Q430 694 439 685T449 672Q449 668 437 656Q372 590 368 501Q368 489 369 489Q372
491 376 493Q389 500 405 500Q431 500 448 483Z" />
<glyph unicode="&#x201d;" glyph-name="quotedblright" horiz-adv-x="500" d="M34 634Q34 659 50 676T93 694Q117 694 138 675Q168 641 168 579Q168 518 140 464Q120 423 91 394Q76 379 73 379T60 388T50 401Q50 405 62 417Q127 483 131 572Q131 584 130 584Q127
582 123 580Q110 573 94 573Q69 573 52 590T34 634ZM238 634Q238 659 254 676T297 694Q321 694 342 675Q372 641 372 579Q372 518 344 464Q324 423 295 394Q280 379 277 379T264 388T254 401Q254 405 266 417Q331 483 335 572Q335 584 334 584Q331 582 327 580Q314
573 298 573Q273 573 256 590T238 634Z" />
<glyph unicode="&#x2020;" glyph-name="dagger" horiz-adv-x="444" d="M182 675Q195 705 222 705Q234 705 242 700T253 691T263 675L262 655Q262 619 251 547Q241 483 240 454V449Q257 452 282 460Q324 472 346 472Q364 472 376 461T389 431T377 402T346 390Q322
390 282 403Q248 412 243 412H240V405Q245 370 250 342Q263 280 263 225Q263 38 245 -168Q242 -210 239 -213T222 -216T205 -213T199 -168Q181 38 181 225Q181 280 194 342Q199 370 204 405V412H201Q196 412 162 403Q122 390 98 390Q80 390 68 401T55 431Q55 448
67 460T98 472Q120 472 162 460Q189 451 205 449L204 454Q203 483 193 547Q182 619 182 655V675Z" />
<glyph unicode="&#x2021;" glyph-name="daggerdbl" horiz-adv-x="444" d="M181 658Q181 705 222 705T263 658Q263 630 252 575Q240 514 240 497Q240 496 241 496Q243 496 248 497T263 501T282 506Q327 519 345 519Q364 519 376 508T388 478Q388 467 384 459T376
448T361 438H344Q319 438 282 449Q274 451 264 453T248 457T241 459Q240 458 240 456Q240 444 252 381Q263 326 263 297Q263 275 252 263T222 250T192 262T181 297Q181 326 192 381Q204 441 204 458Q204 459 203 459Q201 459 196 458T181 454T162 449Q125 438 101
438H84Q56 452 56 478Q56 497 68 508T99 519Q117 519 162 506Q170 504 180 502T196 498T203 496Q204 497 204 499Q204 512 192 575Q181 630 181 658ZM181 202Q181 249 222 249T263 202Q263 173 251 114Q244 74 240 48V41H243Q248 41 282 50Q322 63 346 63Q364 63
376 52T389 22T377 -7T346 -19Q322 -19 282 -6Q248 3 243 3H240V-4Q244 -30 251 -70Q263 -129 263 -158Q263 -180 252 -192T222 -205T192 -193T181 -158Q181 -129 193 -70Q200 -30 204 -4V3H201Q196 3 162 -6Q122 -19 98 -19Q80 -19 68 -8T55 22Q55 39 67 51T98
63Q122 63 162 50Q196 41 201 41H204V48Q200 74 193 114Q181 173 181 202Z" />
<glyph unicode="&#x2026;" glyph-name="ellipsis" horiz-adv-x="1172" d="M78 60Q78 86 95 103T138 120T181 103T199 61Q199 35 181 18T139 0Q113 0 96 18T78 60ZM525 60Q525 86 542 103T585 120Q611 120 628 103T646 61Q646 35 628 18T586 0Q560 0 543 18T525
60ZM972 60Q972 86 989 103T1032 120T1075 103T1093 61Q1093 35 1075 18T1033 0Q1007 0 990 18T972 60Z" />
<glyph unicode="&#x2032;" glyph-name="minute" horiz-adv-x="275" d="M198 560Q224 560 243 542T262 501Q262 496 260 486Q259 479 173 263T84 45T79 43Q72 43 56 48Q30 57 30 61Q30 68 85 293T146 528Q160 560 198 560Z" />
<glyph unicode="&#x20d7;" glyph-name="uni20D7" horiz-adv-x="0" d="M-123 694Q-123 702 -118 708T-103 714Q-96 714 -91 709Q-86 705 -81 690Q-71 653 -40 633Q-29 626 -29 615Q-29 606 -32 603T-46 594Q-89 572 -121 531Q-123 529 -126 525T-131 519T-136 517T-143
516Q-150 516 -156 521T-163 536Q-163 555 -116 595H-287L-458 596Q-471 605 -471 615Q-471 622 -458 635H-99Q-123 673 -123 694Z" />
<glyph unicode="&#x210f;" glyph-name="uni210F" horiz-adv-x="540" d="M42 26L166 530Q166 534 161 534T129 535Q91 535 86 539Q74 548 74 562Q74 570 78 577Q84 587 92 588T138 592L182 595V599Q182 615 164 617Q155 619 133 619Q118 619 114 621T109 630Q109
636 114 656T122 681Q125 685 202 688Q272 695 286 695Q304 695 304 684Q304 682 295 644T282 597Q282 592 360 592Q437 592 446 586Q460 577 460 563Q460 552 451 541L442 535H266L251 468Q247 453 243 436T236 409T233 399Q233 395 244 404Q295 441 357 441Q402
441 434 423T478 375Q485 352 485 333Q485 282 435 141Q412 77 412 58Q412 44 426 44Q447 44 466 68Q485 87 500 130L509 152H531H550Q562 152 562 144Q562 134 551 108Q512 12 438 -10Q426 -13 415 -13Q385 -13 359 3T322 44Q318 52 318 77Q318 97 335 148Q386
286 386 337Q386 386 346 386Q318 386 286 370Q267 361 245 338T211 292Q205 285 173 157Q165 128 157 95T144 43T138 21Q128 7 122 4Q105 -12 83 -12Q66 -12 54 -2T42 26Z" />
<glyph unicode="&#x2111;" glyph-name="Ifraktur" horiz-adv-x="722" d="M55 507Q55 589 115 647T260 705Q338 705 413 653Q467 616 526 541Q542 522 549 517T567 512Q598 512 622 521T647 550Q647 558 651 559T670 561H679Q685 561 687 561T691 557T693 548Q693
536 686 523Q661 475 565 475Q521 475 481 495Q439 515 383 584Q331 644 304 657Q283 667 259 667Q231 667 211 660Q169 647 140 614T103 536Q102 529 102 508Q102 476 116 441Q136 401 179 374T273 347Q282 347 284 344T287 329Q287 317 285 314T272 310Q196 310
136 354T59 468Q55 485 55 507ZM667 320Q654 320 651 322T647 335Q645 360 622 376T566 393Q553 393 549 391Q517 376 517 312Q517 287 536 264Q543 255 581 222Q614 195 625 169Q631 153 631 132Q630 105 617 78Q580 7 487 -9Q478 -10 417 -10Q357 -10 347 -8Q325
-3 300 10T258 36T213 71T175 101Q119 143 71 146Q61 146 58 149T55 163Q55 180 60 182H68Q75 182 86 182T108 183Q122 183 141 183T161 182Q190 178 218 163T259 135T306 93Q349 52 370 38T420 13Q459 22 487 45T527 101Q533 117 533 136Q533 151 529 159Q521
180 483 214Q439 249 428 273Q420 290 420 304V312Q420 381 491 414Q525 431 564 431Q615 431 652 405T693 336Q693 325 690 323T676 320H667Z" />
<glyph unicode="&#x2113;" glyph-name="afii61289" horiz-adv-x="417" d="M349 104Q353 104 361 95T369 80T352 59Q267 -20 206 -20Q118 -20 97 114Q95 128 94 129Q94 130 79 116T48 86T28 70Q23 70 13 82Q7 90 7 94T12 103T58 147L91 179V185Q91 186 91 191T92
200Q92 258 115 347Q153 505 230 620Q278 694 325 704Q327 704 330 704T336 705Q383 705 395 660Q397 652 397 627Q397 601 395 587Q366 420 194 233L165 201L163 186Q159 142 159 123Q159 109 161 87Q166 50 176 34T208 17Q246 17 292 56Q301 63 314 75T337 96T349
104ZM360 634Q360 652 355 660T336 668Q334 668 331 668T327 667Q303 658 272 592Q241 522 197 347Q179 277 179 273Q179 272 186 280T204 300T221 322Q328 453 355 590Q360 612 360 634Z" />
<glyph unicode="&#x2118;" glyph-name="weierstrass" horiz-adv-x="636" d="M362 109Q362 88 340 76Q340 55 355 41T393 26Q435 26 474 67Q512 106 535 195Q551 258 551 290Q551 327 534 350T484 373Q462 373 429 366Q364 351 304 301T197 172Q174 132 174 130Q254
30 265 10Q276 -15 276 -41Q276 -99 240 -153T154 -215Q150 -216 142 -216Q67 -216 67 -118Q67 -40 104 64L110 81Q81 118 81 174Q81 264 128 351T235 451Q243 453 247 453Q259 453 259 445Q259 432 253 420Q251 416 242 416Q219 413 193 372Q172 343 157 293T142
203Q142 165 149 165L158 180Q198 250 256 306T382 389Q434 410 485 410Q514 410 536 402Q625 367 625 255Q625 149 539 59Q494 16 443 -1Q418 -10 389 -10Q349 -10 326 12T300 74Q300 133 338 133Q362 133 362 109ZM105 -123Q105 -151 113 -164T145 -178Q155 -178
160 -176Q181 -165 197 -135T214 -73Q214 -60 209 -48Q208 -45 175 -1T139 43L135 33Q116 -27 107 -86Q105 -96 105 -123Z" />
<glyph unicode="&#x211c;" glyph-name="Rfraktur" horiz-adv-x="722" d="M114 243Q86 243 71 266T55 322Q55 331 59 333T75 336T91 334T95 322Q95 280 113 280Q124 280 131 287T142 311T145 340T147 375Q147 410 145 418Q138 445 101 487Q67 526 58 555Q56 563
56 580Q56 651 107 686Q131 704 169 704T244 679Q277 654 300 614L334 648Q407 706 531 715Q534 715 543 715T557 716Q570 716 572 714Q574 713 644 580T715 444Q715 441 713 439Q708 434 639 398T549 354L550 348Q550 337 555 238T561 128Q561 122 560 114T559
101Q559 61 591 25L599 18L631 51Q666 86 669 86Q675 86 687 79T702 68Q704 63 702 59Q702 58 659 20T613 -21Q612 -22 598 -22Q544 -22 512 0Q490 15 476 42T461 101Q461 106 462 114T463 129Q463 131 461 181T455 282L452 331V338H343V280Q342 195 333 157Q316
64 267 12Q233 -22 193 -22Q150 -22 119 5T72 74Q71 76 67 74Q59 72 48 82Q40 91 40 95Q40 103 57 109V113Q57 117 67 127T81 137Q89 137 93 123Q106 126 108 126Q111 124 118 117T127 107Q127 102 125 100T114 94L107 90Q107 85 120 62Q153 15 192 15T239 96Q244
135 244 334Q244 510 242 542Q236 584 233 596Q210 668 166 668Q136 668 118 643T100 584Q100 561 132 528Q159 498 173 476T193 423Q194 415 194 389Q190 243 114 243ZM324 562Q341 501 343 427V384H424L505 385Q540 397 584 422L609 435Q610 435 594 465T550
550Q536 575 520 605T496 650L488 664L476 662Q413 648 378 624Q336 600 324 562Z" />
<glyph unicode="&#x2135;" glyph-name="aleph" horiz-adv-x="611" d="M76 37Q110 39 125 45T140 70Q140 88 133 106Q126 122 107 157Q83 201 83 236Q83 256 89 286Q101 348 149 432Q160 450 159 452Q143 468 95 524Q63 563 56 594Q55 599 55 613Q55 642 59 657Q70
694 85 694Q94 694 94 681Q98 632 134 588Q142 577 408 289L412 285Q415 309 430 400T447 509V519L438 526Q413 548 407 558Q388 581 388 617Q388 637 392 657Q403 694 418 694Q425 694 427 684Q430 671 470 611Q475 603 478 598T485 589T491 583T500 575T512 564Q531
548 536 543T548 523T555 487Q555 469 551 447Q548 434 541 423T528 409Q521 409 519 412T515 426Q514 446 503 463Q492 481 490 481Q489 474 488 465Q486 453 472 369T456 267Q454 247 454 246Q454 239 469 223T506 181T542 132Q555 107 555 79Q555 32 538 9Q530
0 524 0Q516 0 516 13Q512 62 476 106Q473 109 417 170T294 305T200 407L195 412L194 408Q165 350 165 240Q165 224 166 220Q172 197 203 161Q234 126 243 106T252 70Q252 41 230 24T175 1Q170 0 115 0Q73 0 66 0T56 5Q55 7 55 20Q55 31 58 34Q60 37 76 37Z" />
<glyph unicode="&#x2190;" glyph-name="arrowleft" horiz-adv-x="1000" d="M944 262T944 250T929 230H165L168 227Q271 148 303 25Q309 3 309 0Q309 -11 288 -11Q276 -11 273 -9T267 4Q265 11 263 21Q245 94 195 151T73 236Q58 242 55 247Q55 260 73 264Q144 292
194 349T263 479Q264 482 265 488T266 496T268 502T272 507T278 510T288 511Q309 511 309 500Q309 497 303 475Q273 356 168 273L165 270H929Q944 262 944 250Z" />
<glyph unicode="&#x2191;" glyph-name="arrowup" horiz-adv-x="500" d="M27 414Q17 414 17 433Q17 437 17 439T17 444T19 447T20 450T22 452T26 453T30 454T36 456Q78 467 117 492T180 549Q227 607 238 678Q239 694 251 694Q259 694 261 684Q261 683 261 680T263
674T264 668Q281 590 335 533T464 456Q466 455 469 454T474 453T477 452T480 450T481 448T482 444T483 440T483 433Q483 413 473 413Q467 413 458 416Q342 448 277 545L270 555V-179Q263 -193 250 -193T230 -179V555L223 545Q177 475 99 437Q49 414 27 414Z" />
<glyph unicode="&#x2192;" glyph-name="arrowright" horiz-adv-x="1000" d="M56 237T56 250T70 270H835Q764 323 725 398Q700 446 692 493Q692 495 692 497T691 500Q691 511 711 511Q723 511 726 509T732 497Q735 477 743 456Q765 389 816 337T935 261Q944 258
944 250T935 239Q867 216 816 164T743 44Q736 23 732 4Q730 -6 727 -8T711 -11Q690 -11 690 0Q690 3 696 25Q727 150 835 230H70Q56 237 56 250Z" />
<glyph unicode="&#x2193;" glyph-name="arrowdown" horiz-adv-x="500" d="M473 86Q483 86 483 67Q483 63 483 61T483 56T481 53T480 50T478 48T474 47T470 46T464 44Q389 25 335 -32T264 -168Q264 -170 263 -173T262 -180T261 -184Q259 -194 251 -194Q239 -194
238 -178Q230 -129 203 -82T139 -8Q91 30 36 44Q34 45 31 46T26 47T23 48T20 50T19 52T18 56T17 60T17 67Q17 87 27 87Q33 87 42 84Q158 52 223 -45L230 -55V312Q230 679 232 683Q238 694 251 694Q263 693 270 679V-55L277 -45Q323 25 402 63Q450 86 473 86Z" />
<glyph unicode="&#x2194;" glyph-name="arrowboth" horiz-adv-x="1000" d="M267 497Q270 507 273 509T288 511Q309 511 309 500Q309 497 303 475Q273 356 168 273L165 270H835Q728 350 696 475Q690 497 690 500Q690 511 711 511Q723 511 726 509T732 497Q735 477
743 456Q765 389 816 337T935 261Q944 258 944 250T935 239Q867 216 816 164T743 44Q736 23 732 4Q730 -6 727 -8T711 -11Q690 -11 690 0Q690 3 696 25Q727 150 835 230H165L168 227Q271 148 303 25Q309 3 309 0Q309 -11 288 -11Q276 -11 273 -9T267 4Q265 11 263
21Q245 94 195 151T73 236Q58 242 55 247Q55 260 73 264Q144 292 194 349T263 479Q264 485 267 497Z" />
<glyph unicode="&#x2195;" glyph-name="arrowupdn" horiz-adv-x="500" d="M27 492Q17 492 17 511Q17 515 17 517T17 522T19 525T20 528T22 530T26 531T30 532T36 534Q78 545 117 570T180 627Q224 682 236 747Q239 765 243 769Q246 772 250 772Q259 772 261 762Q261
761 261 758T263 752T264 746Q281 668 335 610T464 534Q466 533 469 532T474 531T477 530T480 528T481 526T482 522T483 518T483 511Q483 491 473 491Q467 491 458 494Q342 526 277 623L270 633V-133L277 -123Q323 -53 402 -15Q450 8 473 8Q483 8 483 -11Q483 -15
483 -17T483 -22T481 -25T480 -28T478 -30T474 -31T470 -32T464 -34Q389 -53 335 -110T264 -246Q264 -248 263 -251T262 -258T261 -262Q259 -272 250 -272Q246 -272 243 -269Q239 -265 236 -246Q227 -200 201 -156T139 -86Q91 -48 36 -34Q34 -33 31 -32T26 -31T23
-30T20 -28T19 -26T18 -22T17 -18T17 -11Q17 9 27 9Q33 9 42 6Q158 -26 223 -123L230 -133V633L223 623Q177 553 99 515Q49 492 27 492Z" />
<glyph unicode="&#x2196;" glyph-name="uni2196" horiz-adv-x="1000" d="M52 332Q49 332 39 342T29 355T38 372Q86 451 86 545Q86 614 59 671Q55 681 55 683Q55 688 59 691T67 694Q131 662 204 662Q236 662 253 665Q321 676 377 711Q390 720 394 720Q397 720 407
710T417 697Q417 690 400 679Q331 636 248 625Q228 623 212 623Q176 623 153 628Q151 628 221 557T546 232Q942 -164 943 -168Q944 -170 944 -174Q944 -182 938 -188T924 -195Q922 -195 916 -193Q912 -191 517 204Q440 281 326 394T166 553L121 598Q126 587 126
557V541Q126 438 70 349Q59 332 52 332Z" />
<glyph unicode="&#x2197;" glyph-name="uni2197" horiz-adv-x="1000" d="M582 697Q582 700 592 710T605 720T622 711Q678 675 747 665Q762 662 795 662Q856 662 918 688Q929 694 934 694Q942 694 944 685Q944 682 940 671Q913 614 913 545Q913 451 961 372Q970
358 970 355T960 342T947 332Q940 332 929 349Q874 436 874 541V567Q874 591 878 598L832 553Q787 508 673 395T482 204Q87 -191 83 -193Q77 -195 75 -195Q67 -195 61 -189T55 -174Q55 -170 56 -168Q58 -164 453 232Q707 487 777 557T847 628Q824 623 787 623Q771
623 751 625Q668 636 599 679Q582 690 582 697Z" />
<glyph unicode="&#x2198;" glyph-name="uni2198" horiz-adv-x="1000" d="M55 675Q55 683 60 689T75 695Q77 695 83 693Q87 691 482 296Q532 246 605 174T717 62T799 -20T859 -80T878 -97Q877 -96 875 -81Q874 -71 874 -41Q874 64 929 151Q940 168 947 168Q950
168 960 158T970 145T961 128Q913 49 913 -45Q913 -114 940 -171Q944 -182 944 -185Q942 -194 934 -194Q929 -194 918 -188Q856 -162 795 -162Q762 -162 747 -165Q678 -175 622 -211Q608 -220 605 -220T592 -210T582 -197Q582 -190 599 -179Q668 -136 751 -125Q771
-123 787 -123Q824 -123 847 -128Q848 -128 778 -57T453 268Q58 664 56 668Q55 670 55 675Z" />
<glyph unicode="&#x2199;" glyph-name="uni2199" horiz-adv-x="1000" d="M29 142T29 145T39 158T52 168Q59 168 70 151Q126 62 126 -41Q126 -61 124 -81Q122 -96 121 -97Q121 -98 139 -80T200 -20T281 61T394 173T517 296Q909 690 916 693Q922 695 924 695Q932
695 938 689T944 674Q944 670 943 668Q942 664 546 268Q292 13 222 -57T153 -128Q176 -123 212 -123Q228 -123 248 -125Q331 -136 400 -179Q417 -190 417 -197Q417 -200 407 -210T394 -220Q390 -220 377 -211Q321 -176 253 -165Q236 -162 204 -162Q139 -162 82
-188Q78 -190 72 -192L67 -194Q63 -195 59 -192T55 -183Q55 -181 59 -171Q86 -114 86 -45Q86 49 38 128Q29 142 29 145Z" />
<glyph unicode="&#x21a6;" glyph-name="uni21A6" horiz-adv-x="1000" d="M57 425Q63 437 75 437Q83 437 89 431Q94 426 94 416T95 345V270H835Q764 323 725 398Q700 446 692 493Q692 495 692 497T691 500Q691 511 711 511Q723 511 726 509T732 497Q735 477 743
456Q765 389 816 337T935 261Q944 258 944 250T935 239Q867 216 816 164T743 44Q736 23 732 4Q730 -6 727 -8T711 -11Q690 -11 690 0Q690 3 696 25Q727 150 835 230H95V155Q95 94 95 84T89 69Q83 63 75 63T61 69Q56 74 56 93T55 250Q55 421 57 425Z" />
<glyph unicode="&#x21a9;" glyph-name="uni21A9" horiz-adv-x="1126" d="M1070 397T1070 347T1028 264T929 230H165L168 227Q271 148 303 25Q309 3 309 0Q309 -11 288 -11Q276 -11 273 -9T267 4Q265 11 263 21Q245 94 195 151T73 236Q58 242 55 247Q55 260 73
264Q144 292 194 349T263 479Q264 482 265 488T266 496T268 502T272 507T278 510T288 511Q309 511 309 500Q309 497 303 475Q273 356 168 273L165 270H929Q989 275 1015 307Q1030 325 1030 347Q1030 381 1001 401T929 424Q903 426 903 444Q903 464 929 464Q986
464 1028 431Z" />
<glyph unicode="&#x21aa;" glyph-name="uni21AA" horiz-adv-x="1126" d="M196 230Q139 230 97 263T55 347T97 430T197 464Q222 464 222 444Q222 426 196 424Q136 419 110 387Q95 369 95 347Q95 313 124 293T196 270H961Q890 323 851 398Q826 446 818 493Q818 495
818 497T817 500Q817 511 837 511Q849 511 852 509T858 497Q861 477 869 456Q891 389 942 337T1061 261Q1070 258 1070 250T1061 239Q993 216 942 164T869 44Q862 23 858 4Q856 -6 853 -8T837 -11Q816 -11 816 0Q816 3 822 25Q853 150 961 230H196Z" />
<glyph unicode="&#x21bc;" glyph-name="uni21BC" horiz-adv-x="1000" d="M62 230Q56 236 55 244Q55 252 57 255T69 265Q205 346 265 493Q270 509 274 510Q277 511 283 511H288Q304 511 306 505Q309 501 303 484Q255 353 151 273L148 270H929Q944 262 944 250T929 230H62Z" />
<glyph unicode="&#x21bd;" glyph-name="uni21BD" horiz-adv-x="1000" d="M55 256Q56 264 62 270H929Q944 262 944 250T929 230H148Q153 225 168 212T191 191Q267 113 303 16Q309 -1 306 -5Q304 -11 288 -11Q276 -11 273 -9T265 7Q202 155 69 235Q59 242 57 245T55 256Z" />
<glyph unicode="&#x21c0;" glyph-name="uni21C0" horiz-adv-x="1000" d="M691 500Q691 511 711 511Q723 511 726 509T734 493Q794 352 912 276Q932 264 933 263Q941 258 942 256T944 245T937 230H70Q56 237 56 250T70 270H852Q801 308 760 365T696 484Q691 497 691 500Z" />
<glyph unicode="&#x21c1;" glyph-name="uni21C1" horiz-adv-x="1000" d="M56 237T56 250T70 270H937Q944 263 944 256Q944 242 933 238Q794 153 734 7Q729 -7 726 -9T711 -11Q695 -11 693 -5Q690 -1 696 16Q719 79 760 135T852 230H70Q56 237 56 250Z" />
<glyph unicode="&#x21cc;" glyph-name="uni21CC" horiz-adv-x="1000" d="M691 660Q691 671 711 671Q723 671 726 669T734 653Q794 512 912 436Q932 423 933 423Q941 418 942 416T944 405T937 390H70Q56 397 56 410T70 430H852Q801 468 760 525T696 644Q691 657
691 660ZM55 256Q56 264 62 270H929Q944 262 944 250T929 230H148Q153 225 168 212T191 191Q267 113 303 16Q309 -1 306 -5Q304 -11 288 -11Q276 -11 273 -9T265 7Q202 155 69 235Q59 242 57 245T55 256Z" />
<glyph unicode="&#x21d0;" glyph-name="arrowdblleft" horiz-adv-x="1000" d="M944 153Q944 140 929 133H318L328 123Q379 69 414 0Q419 -12 419 -16Q419 -24 399 -24Q388 -24 385 -23T377 -12Q303 134 160 204Q118 225 72 237Q62 240 59 242T56 250T59 257T72
263Q174 289 252 354T377 512Q391 524 395 525H401Q419 524 419 515Q419 512 414 500Q379 431 328 377L318 367H929Q944 360 944 347Q944 336 930 328L602 327H274L264 319Q224 289 147 250Q151 247 157 245Q212 221 264 181L274 173H930Q931 172 934 170T939 166T942
161T944 153Z" />
<glyph unicode="&#x21d1;" glyph-name="arrowdblup" horiz-adv-x="611" d="M228 -179Q217 -194 208 -194T189 -181L188 125V430L176 419Q122 369 59 338Q46 330 40 330Q38 330 31 337V350Q31 362 33 365T46 374Q134 417 199 497T292 677Q295 688 298 692Q302 694
305 694Q313 694 318 677Q345 578 410 498T564 374Q575 368 577 365T579 350V337Q572 330 570 330Q564 330 551 338Q487 370 435 419L423 430L422 125V-181Q413 -194 401 -194Q387 -194 382 -177V475L373 487Q331 541 305 602Q303 598 301 593Q275 536 238 488L229
476L228 148V-179Z" />
<glyph unicode="&#x21d2;" glyph-name="arrowdblright" horiz-adv-x="1000" d="M580 514Q580 525 596 525Q610 525 613 524T622 512Q702 353 867 284Q899 270 927 263Q944 258 944 250T927 237Q825 211 747 145T622 -12Q618 -21 615 -22T600 -24Q580 -24 580 -16Q580
-12 585 0Q620 69 671 123L681 133H70Q56 140 56 153Q56 168 72 173H725L735 181Q775 211 852 250Q848 253 842 255Q787 279 735 319L725 327H72Q56 332 56 347Q56 360 70 367H681L671 377Q620 431 585 500Q580 510 580 514Z" />
<glyph unicode="&#x21d3;" glyph-name="arrowdbldown" horiz-adv-x="611" d="M401 694Q413 694 422 681V375L423 70L435 81Q487 130 551 162Q564 170 570 170Q572 170 579 163V150Q579 138 577 135T564 126Q475 82 411 4T318 -177Q313 -194 305 -194T292 -177Q264
-75 200 3T46 126Q35 132 33 135T31 150V163Q38 170 40 170Q46 170 59 162Q122 131 176 81L188 70V375L189 681Q199 694 208 694Q218 694 228 680V352L229 25L238 12Q279 -42 305 -102Q307 -98 309 -93Q335 -36 373 13L382 25V678Q389 693 401 694Z" />
<glyph unicode="&#x21d4;" glyph-name="arrowdblboth" horiz-adv-x="1000" d="M308 524Q320 526 323 526Q340 526 340 514Q340 507 336 499Q308 432 262 376L255 368Q255 367 500 367Q744 367 744 368Q741 372 737 376Q691 432 663 499Q658 511 658 515Q658 525
680 525Q687 524 690 523T695 519T701 507Q769 357 902 287Q935 268 955 262Q966 258 966 250T955 238Q935 232 902 213Q763 137 701 -7Q697 -16 695 -19T690 -23T680 -25Q658 -25 658 -15Q658 -11 663 1Q691 68 737 124L744 132Q744 133 500 133Q255 133 255 132Q258
128 262 124Q308 68 336 1Q341 -11 341 -15Q341 -25 319 -25Q312 -24 309 -23T304 -19T298 -7Q230 143 97 213Q64 232 44 238Q34 242 34 250T44 262Q64 268 97 287Q235 363 299 509Q305 522 308 524ZM792 319L783 327H216Q181 292 120 256L110 250L120 244Q173
212 207 181L216 173H783L792 181Q826 212 879 244L889 250L879 256Q826 288 792 319Z" />
<glyph unicode="&#x21d5;" glyph-name="uni21D5" horiz-adv-x="611" d="M290 755Q292 758 293 762T296 767T299 770T305 772Q313 772 320 755Q350 673 416 606T565 506Q577 499 579 497V484Q579 466 572 464Q567 463 550 470Q488 496 423 550L422 400V100L423
-50Q486 2 550 30Q567 37 572 36Q579 34 579 16V3Q577 1 565 -6Q504 -31 449 -77Q424 -98 393 -132Q343 -193 320 -254Q313 -272 305 -272T290 -254Q267 -193 217 -132Q191 -103 162 -77Q105 -30 45 -6Q33 1 31 3V16Q31 34 38 36Q43 37 61 30Q130 0 181 -45L188
-50V550L181 545Q130 500 61 470Q43 463 38 464Q31 466 31 484V497Q33 499 45 506Q105 530 162 577Q255 663 290 755ZM374 598Q350 623 305 695Q302 691 300 687Q269 633 236 598L228 589V-89L236 -98Q260 -123 305 -195Q308 -191 310 -187Q341 -133 374 -98L382
-89V589L374 598Z" />
<glyph unicode="&#x2200;" glyph-name="universal" horiz-adv-x="556" d="M0 673Q0 681 6 687T20 694Q30 694 35 687Q38 684 82 567L126 451H430L473 566Q483 593 494 622T512 668T519 685Q524 694 538 694Q556 692 556 674Q556 670 426 329T293 -15Q288 -22 278
-22T263 -15Q260 -11 131 328T0 673ZM414 410Q414 411 278 411T142 410L278 55L414 410Z" />
<glyph unicode="&#x2202;" glyph-name="partialdiff" horiz-adv-x="531" d="M202 508Q183 508 171 518T158 547Q158 557 162 570Q177 624 213 660T301 710Q326 715 333 715H345Q378 715 384 714Q467 699 516 630T566 457Q566 398 544 316Q492 135 402 53Q321 -22
223 -22Q170 -22 135 -4T73 56Q51 88 44 123Q42 132 42 159Q42 191 48 215Q71 318 146 386Q214 448 280 461Q299 465 322 465Q352 465 372 458Q438 435 455 367L458 378Q478 461 478 515Q478 630 399 665Q372 676 344 676Q306 676 274 658T223 612Q264 605 264
572Q264 545 246 527T202 508ZM430 306Q430 411 349 427Q344 428 333 428Q271 428 222 382Q202 360 192 342Q172 308 150 221Q132 149 132 116Q132 21 232 21Q244 21 250 22Q327 35 374 112Q393 145 412 206Q430 263 430 306Z" />
<glyph unicode="&#x2203;" glyph-name="existential" horiz-adv-x="556" d="M56 661T56 674T70 694H487Q497 686 500 679V15Q498 10 487 1L279 0H70Q56 7 56 20T70 40H460V327H84Q70 334 70 347T84 367H460V654H70Q56 661 56 674Z" />
<glyph unicode="&#x2205;" glyph-name="emptyset" horiz-adv-x="500" d="M132 -78Q125 -78 118 -73T111 -60Q111 -52 122 -18L133 21L125 29Q97 56 77 100Q39 186 39 344Q39 488 69 571Q95 642 137 675Q187 716 251 716Q294 716 326 698L331 696Q335 708 340 725T348
752L351 762Q357 772 367 772Q374 772 381 767T388 754Q388 746 377 712L366 673L378 661Q403 635 420 596Q460 509 460 344Q460 186 422 100Q403 57 373 27Q319 -22 250 -22Q214 -22 180 -7Q168 -3 168 -4L159 -33Q148 -71 142 -75Q138 -78 132 -78ZM276 676Q264
679 246 679Q196 679 159 631Q135 597 128 533T121 356Q121 335 121 304T122 266Q126 131 151 80L234 366Q253 430 275 506T308 618L318 654Q318 656 294 669L276 676ZM181 42Q207 16 250 16Q290 16 324 47Q352 76 363 121T377 266Q377 273 377 304T378 356V404Q378
540 359 593Q356 605 349 616L348 613Q348 611 264 326L181 42Z" />
<glyph unicode="&#x2207;" glyph-name="gradient" horiz-adv-x="833" d="M46 676Q46 680 51 683H781Q786 680 786 676Q786 674 617 326T444 -26Q439 -33 416 -33T388 -26Q385 -22 216 326T46 676ZM697 596Q697 597 445 597T193 596Q195 591 319 336T445 80L697 596Z" />
<glyph unicode="&#x2208;" glyph-name="element" horiz-adv-x="667" d="M84 250Q84 369 164 448T360 539Q361 539 377 539T419 540T469 540H568Q583 533 583 520Q583 510 570 501L466 500Q355 499 329 494Q254 475 201 427T130 309Q124 285 124 272V270H568Q583
262 583 250T568 230H124V228Q124 215 130 191Q148 123 201 73T328 7Q355 1 466 0H570Q583 -9 583 -20Q583 -33 568 -40H471Q362 -40 338 -36Q246 -21 177 42T89 192Q84 215 84 250Z" />
<glyph unicode="&#x2209;" glyph-name="notelement" horiz-adv-x="667" d="M104 -215Q84 -215 84 -197Q84 -190 89 -183L196 26Q110 91 89 192Q84 215 84 250Q84 369 164 448T360 539Q361 539 375 539T413 540T460 540L547 707Q551 716 563 716Q571 716 577 710T583
696Q583 693 505 540H568Q583 533 583 520Q583 510 570 501L484 500L366 270H568Q583 262 583 250T568 230H346L247 39Q283 16 328 7Q355 1 466 0H570Q583 -9 583 -20Q583 -33 568 -40H471Q362 -40 338 -36Q284 -28 229 4Q118 -210 115 -212Q111 -215 104 -215ZM214
62L301 230H124V228Q124 215 130 191Q152 114 214 62ZM321 270L440 500Q353 499 329 494Q254 475 201 427T130 309Q124 285 124 272V270H321Z" />
<glyph unicode="&#x220b;" glyph-name="suchthat" horiz-adv-x="667" d="M83 520Q83 533 98 540H195Q304 540 328 536Q420 522 489 459T577 309Q582 285 582 250T577 192Q558 99 481 34T304 -39Q297 -40 195 -40H98Q83 -33 83 -20Q83 -9 96 0H200Q311 1 337 6Q369
14 401 28Q422 39 445 55Q514 109 536 191Q542 215 542 228V230H98Q84 237 84 250T98 270H542V272Q542 285 536 309Q514 391 445 445Q422 461 401 472Q366 487 338 493Q311 499 200 500L96 501Q83 510 83 520Z" />
<glyph unicode="&#x2212;" glyph-name="minus" horiz-adv-x="778" d="M84 237T84 250T98 270H679Q694 262 694 250T679 230H98Q84 237 84 250Z" />
<glyph unicode="&#x2213;" glyph-name="uni2213" horiz-adv-x="778" d="M56 467T56 480T70 500H707Q722 492 722 480T707 460H409V187H707Q722 180 722 167T707 147H409V0Q409 -118 409 -136T403 -160Q397 -166 389 -166Q377 -166 371 -155Q369 -151 369 -2V147H70Q56
154 56 167T70 187H369V460H70Q56 467 56 480Z" />
<glyph unicode="&#x2215;" glyph-name="uni2215" horiz-adv-x="500" d="M75 -250Q68 -250 62 -244T56 -231Q56 -221 230 257T407 740Q412 750 425 750Q433 749 439 743T444 730Q444 725 271 248T92 -240Q85 -250 75 -250Z" />
<glyph unicode="&#x2216;" glyph-name="uni2216" horiz-adv-x="500" d="M56 731Q56 738 62 744T75 750Q85 750 92 740Q96 733 270 255T444 -231T438 -244T424 -250Q414 -250 407 -240Q404 -236 230 242T56 731Z" />
<glyph unicode="&#x2217;" glyph-name="asteriskmath" horiz-adv-x="500" d="M229 286Q216 420 216 436Q216 455 240 464Q241 464 245 464T251 465Q264 464 273 456T283 436Q283 419 277 356T270 286L328 328Q384 369 389 372Q395 375 401 375Q414 375 424 363T435
338T425 315Q420 312 357 282T289 250L355 219L425 184Q434 175 434 161Q434 146 425 136T401 125Q393 125 389 127Q384 130 328 171L270 213Q283 79 283 63Q283 50 274 43T250 35Q235 35 226 42T216 63Q216 80 222 143T229 213L171 171Q115 130 110 127Q104 124
98 124Q85 124 75 136T64 161T74 184Q75 185 93 193T146 219T210 250L74 315Q65 324 65 338Q65 353 74 363T98 374Q106 374 110 372Q115 369 171 328L229 286Z" />
<glyph unicode="&#x2218;" glyph-name="uni2218" horiz-adv-x="500" d="M444 249Q444 168 386 112T250 55Q166 55 109 115Q55 171 55 251Q55 330 109 384Q166 444 249 444Q333 444 390 384Q444 328 444 249ZM337 377Q298 403 245 403Q200 403 162 377Q96 329 96
250Q96 170 162 122Q202 96 250 96Q297 96 337 122Q403 170 403 250Q403 329 337 377Z" />
<glyph unicode="&#x2219;" glyph-name="uni2219" horiz-adv-x="500" d="M444 249Q444 168 386 112T250 55Q166 55 109 115Q55 171 55 251Q55 330 109 384Q166 444 249 444Q333 444 390 384Q444 328 444 249Z" />
<glyph unicode="&#x221a;" glyph-name="radical" horiz-adv-x="833" d="M95 178Q91 178 82 186T72 200Q72 203 73 204Q75 208 140 258T207 309Q209 311 212 311Q219 311 224 301Q234 281 312 108L397 -77Q398 -77 501 136T707 565T814 786Q822 800 834 800Q850
800 853 782V776L620 293L385 -193Q381 -200 366 -200Q357 -200 354 -197Q352 -195 256 15L160 225L144 214Q129 202 113 190T95 178Z" />
<glyph unicode="&#x221d;" glyph-name="proportional" horiz-adv-x="778" d="M56 216Q56 305 106 373T238 442Q339 442 423 342Q438 323 462 285L469 297Q512 370 566 406T679 442Q687 442 722 437V398H718Q710 400 694 400Q676 400 666 398Q583 384 521 285Q491
239 495 235Q504 215 554 143Q600 79 644 57Q669 44 696 44Q717 44 719 46H722V-5Q696 -11 678 -11Q607 -11 541 41Q506 67 459 138Q456 143 454 146L447 134Q361 -11 235 -11Q201 -11 168 4Q119 28 88 85T56 216ZM93 213Q93 140 127 86T220 31Q241 31 249 33Q335
49 395 146Q425 192 421 196Q412 216 362 288Q302 373 241 385Q227 387 213 387Q202 387 198 386Q152 376 123 328T93 213Z" />
<glyph unicode="&#x221e;" glyph-name="infinity" horiz-adv-x="1000" d="M136 398Q188 442 254 442Q340 442 419 381Q457 350 493 303L507 284L514 294Q583 393 665 426Q708 442 747 442Q780 442 810 431Q868 408 906 349T944 214V207Q941 153 919 107T863 33Q812
-11 743 -11Q657 -11 580 50Q542 81 506 128L492 147L485 137Q416 38 334 5Q291 -11 252 -11Q219 -11 189 0Q131 23 93 82T55 217V224Q58 278 80 324T136 398ZM765 51Q829 51 868 101T907 217Q907 291 867 344T761 397Q706 397 657 365Q598 327 543 238L574 198Q606
157 614 147Q692 51 765 51ZM233 380Q168 380 130 330T92 214Q92 154 121 105T195 41Q217 33 239 33Q291 33 343 66Q401 104 456 193L425 233Q393 274 385 284Q315 368 255 378Q243 380 233 380Z" />
<glyph unicode="&#x2220;" glyph-name="angle" horiz-adv-x="722" d="M71 0Q55 9 55 20Q55 22 57 28Q67 43 346 361Q632 690 638 692T647 694Q655 694 660 689T666 674Q666 668 663 663Q662 662 627 622T524 503T390 350L120 41L386 40H653Q666 31 666 20Q666
7 651 0H71Z" />
<glyph unicode="&#x2223;" glyph-name="uni2223" horiz-adv-x="278" d="M152 -249T139 -249T119 -235V251L120 737Q130 750 139 750Q152 750 159 735V-235Q152 -249 139 -249Z" />
<glyph unicode="&#x2225;" glyph-name="uni2225" horiz-adv-x="500" d="M133 736Q138 750 153 750Q164 750 170 739Q172 735 172 250T170 -239Q164 -250 152 -250Q144 -250 138 -244L137 -243Q133 -241 133 -179T132 250Q132 731 133 736ZM329 739Q336 750 346
750Q353 750 361 744L362 743Q366 741 366 679T367 250T367 -178T362 -243L361 -244Q355 -250 347 -250Q335 -250 329 -239Q327 -235 327 250T329 739Z" />
<glyph unicode="&#x2227;" glyph-name="logicaland" horiz-adv-x="667" d="M318 591Q325 598 333 598Q344 598 348 591Q349 590 414 445T545 151T611 -4Q609 -22 591 -22Q586 -22 583 -22T578 -18T574 -13T570 -4L333 528L96 -4Q96 -5 95 -6Q87 -22 75 -22Q57
-22 55 -4Q55 2 120 150T251 444T318 591Z" />
<glyph unicode="&#x2228;" glyph-name="logicalor" horiz-adv-x="667" d="M55 580Q56 587 61 592T75 598Q80 598 83 598T88 594T92 589T96 580L333 48L570 580Q570 581 571 582Q579 598 591 598Q609 598 611 580Q611 574 546 426T415 132T348 -15Q343 -22 333
-22T318 -15Q317 -14 252 131T121 425T55 580Z" />
<glyph unicode="&#x2229;" glyph-name="intersection" horiz-adv-x="667" d="M88 -21T75 -21T55 -7V200Q55 231 55 280Q56 414 60 428Q61 430 61 431Q70 470 101 506Q139 548 199 573T332 598Q414 598 480 568T579 487Q606 446 610 405Q611 399 611 194V-7Q604
-22 591 -22Q581 -22 572 -9L570 405Q560 452 529 485Q498 519 445 538T334 558Q207 558 136 484Q102 447 96 401Q95 396 95 193V-7Q88 -21 75 -21Z" />
<glyph unicode="&#x222a;" glyph-name="union" horiz-adv-x="667" d="M591 598Q602 598 611 583V376Q611 345 611 296Q610 162 606 148Q605 146 605 145Q596 106 565 70Q528 27 466 3T333 -22Q255 -22 188 8T87 89Q61 127 56 173Q55 180 55 384L56 585Q65 598
75 598Q86 598 95 585V378L96 172L98 162Q112 95 179 57T332 18Q459 18 530 92Q564 129 570 175Q571 180 571 383V583Q578 598 591 598Z" />
<glyph unicode="&#x222b;" glyph-name="integral'" horiz-adv-x="417" d="M55 -113Q55 -91 69 -78T103 -64T137 -78T151 -112Q151 -130 140 -143T112 -159L106 -161Q106 -163 110 -168T118 -174Q131 -184 146 -176Q160 -170 170 -146Q185 -112 202 63Q215 197
232 310Q256 472 277 567Q305 700 378 715Q383 716 392 716Q436 716 459 671Q472 642 472 613Q472 591 458 578T424 564T390 578T376 612Q376 630 387 643T415 659L421 661Q421 663 417 668T409 674Q396 684 380 675Q362 666 351 623Q342 589 326 438Q302 185 253
-57Q235 -147 201 -186Q174 -213 138 -216Q99 -216 77 -186T55 -113Z" />
<glyph unicode="&#x223c;" glyph-name="similar" horiz-adv-x="778" d="M69 133Q55 133 55 166Q55 177 56 184Q64 258 103 307T201 365Q211 367 222 367Q241 367 253 364Q279 358 306 343T349 315T395 275Q449 228 473 214Q515 189 554 189Q598 189 632 214Q659
233 676 267T694 338Q694 350 698 358T708 367Q722 367 722 334Q722 316 718 296Q710 246 684 207T620 149Q590 134 562 134H554Q526 134 504 142Q458 158 382 225Q328 272 304 286Q262 311 223 311Q179 311 145 286Q107 255 95 216T81 155T69 133Z" />
<glyph unicode="&#x2240;" glyph-name="uni2240" horiz-adv-x="278" d="M55 569Q55 583 83 583Q149 583 185 534T222 411Q222 387 218 370Q208 323 165 246Q124 169 115 128Q111 102 111 89Q111 8 153 -34Q173 -54 195 -55Q222 -57 222 -69Q222 -83 189 -83Q126
-83 91 -32T55 90Q55 114 59 131Q69 177 112 255Q153 330 162 372Q166 398 166 411Q166 492 124 534Q104 554 83 555Q55 557 55 569Z" />
<glyph unicode="&#x2243;" glyph-name="uni2243" horiz-adv-x="778" d="M694 464T708 464T722 432Q722 368 689 322T603 258Q583 251 564 251H554Q520 251 489 264Q451 279 382 332Q318 381 284 395Q253 407 223 407H219Q164 407 122 367Q85 329 83 280Q81 250
69 250Q55 250 55 283Q55 355 97 404T207 463H217Q251 463 271 457T321 434Q343 422 395 382Q459 333 493 319Q524 307 554 307H558Q612 307 651 343T694 433Q694 464 708 464ZM56 56Q56 71 72 76H706Q722 69 722 56Q722 44 707 36H70Q56 43 56 56Z" />
<glyph unicode="&#x2245;" glyph-name="congruent" horiz-adv-x="1000" d="M69 355Q55 355 55 388Q55 399 56 406Q64 480 103 529T201 587Q211 589 222 589Q241 589 253 586Q279 580 306 565T349 537T395 497Q449 450 473 436Q515 411 554 411Q598 411 632 436Q659
455 676 489T694 560Q694 572 698 580T708 589Q722 589 722 556Q722 538 718 518Q710 468 684 429T620 371Q590 356 562 356H554Q526 356 504 364Q458 380 382 447Q328 494 304 508Q262 533 223 533Q179 533 145 508Q107 477 95 438T81 377T69 355ZM56 236Q56 249
70 256H707Q722 248 722 236Q722 225 708 217L390 216H72Q56 221 56 236ZM56 42Q56 57 72 62H708Q709 61 712 59T717 55T720 50T722 42Q722 30 707 22H70Q56 29 56 42Z" />
<glyph unicode="&#x2248;" glyph-name="approxequal" horiz-adv-x="778" d="M694 483T708 483T722 452Q722 395 691 355T609 298Q582 289 555 289Q522 289 485 303Q454 314 384 360Q349 381 335 391Q290 416 250 425Q243 426 224 426Q174 426 135 401Q86 370 83
318Q81 289 69 289Q55 289 55 319Q55 331 59 353Q68 397 96 429T168 474Q188 482 205 482Q207 482 213 482T223 483Q266 483 316 459Q342 445 393 413L443 381Q487 356 528 347Q534 346 553 346Q603 346 642 371Q688 400 694 454Q694 483 708 483ZM69 55Q55 55
55 85Q55 97 59 119Q68 163 96 195T168 240Q188 248 205 248Q207 248 213 248T223 249Q266 249 316 225Q342 211 393 179L443 147Q487 122 528 113Q534 112 553 112Q603 112 642 137Q688 166 694 220Q694 249 708 249T722 217Q722 201 718 185Q706 129 663 92T555
55Q522 55 485 69Q454 80 384 126Q349 147 335 157Q290 182 250 191Q243 192 224 192Q174 192 135 167Q86 136 83 84Q81 55 69 55Z" />
<glyph unicode="&#x224d;" glyph-name="uni224D" horiz-adv-x="778" d="M55 464Q55 471 60 477T74 484Q83 484 94 474Q216 375 352 358Q364 356 389 356Q412 356 426 358Q561 375 683 474Q695 484 703 484T716 478T722 464Q722 461 722 459T720 454T717 451T713
447T707 442Q617 370 523 339Q451 316 389 316Q326 316 254 339Q160 370 70 442Q68 444 66 446T62 449T59 452T57 455T56 459T55 464ZM254 161Q323 183 381 183Q453 183 523 161Q617 130 707 58Q722 45 722 36Q722 28 717 22T703 16T683 26Q561 125 426 142Q412
144 389 144Q364 144 352 142Q213 124 94 26Q82 16 74 16T61 22T55 36Q55 45 70 58Q160 130 254 161Z" />
<glyph unicode="&#x2250;" glyph-name="uni2250" horiz-adv-x="778" d="M56 347Q56 360 70 367H707Q722 360 722 347Q722 336 708 328L390 327H72Q56 332 56 347ZM56 153Q56 168 72 173H708Q709 172 712 170T717 166T720 161T722 153Q722 140 707 133H70Q56 140
56 153ZM329 610Q329 636 346 653T389 670Q415 670 432 653T450 611Q450 585 432 568T390 550Q364 550 347 568T329 610Z" />
<glyph unicode="&#x2260;" glyph-name="notequal" horiz-adv-x="778" d="M159 -215Q139 -215 139 -197Q139 -190 144 -183L306 133H70Q56 140 56 153Q56 168 72 173H327L406 327H72Q56 332 56 347Q56 360 70 367H426Q597 702 602 707Q606 716 618 716Q626 716
632 710T638 696Q638 692 471 367H707Q722 360 722 347Q722 336 708 328L451 327L371 173H708Q709 172 712 170T717 166T720 161T722 153Q722 140 707 133H351Q175 -210 170 -212Q166 -215 159 -215Z" />
<glyph unicode="&#x2261;" glyph-name="equivalence" horiz-adv-x="778" d="M56 444Q56 457 70 464H707Q722 456 722 444Q722 431 706 424H72Q56 429 56 444ZM56 237T56 250T70 270H707Q722 262 722 250T707 230H70Q56 237 56 250ZM56 56Q56 71 72 76H706Q722
69 722 56Q722 44 707 36H70Q56 43 56 56Z" />
<glyph unicode="&#x2264;" glyph-name="lessequal" horiz-adv-x="778" d="M674 636Q682 636 688 629T694 615Q694 607 687 601Q686 600 417 472L151 346L399 228Q687 92 691 87Q694 81 694 76Q694 58 676 56H670L382 192Q92 329 90 331Q83 336 83 348Q84 359 96
365Q104 369 382 500T665 634Q669 636 674 636ZM84 -118Q84 -107 99 -98H678Q694 -105 694 -118Q694 -130 679 -138H98Q84 -131 84 -118Z" />
<glyph unicode="&#x2265;" glyph-name="greaterequal" horiz-adv-x="778" d="M83 616Q83 622 88 629T99 636Q107 636 253 568T543 431T687 361Q694 356 694 346T687 331Q685 329 395 192L107 56H101Q83 58 83 76Q83 81 86 87Q90 92 378 228L626 346L360 472Q91
600 90 601Q83 608 83 616ZM84 -118Q84 -107 99 -98H678Q694 -105 694 -118Q694 -130 679 -138H98Q84 -131 84 -118Z" />
<glyph unicode="&#x226a;" glyph-name="uni226A" horiz-adv-x="1000" d="M639 -40T639 -48T633 -61T619 -67Q614 -67 605 -63Q596 -58 458 17T190 164T59 239Q56 243 56 250T59 261Q62 266 336 415T615 567L619 568Q622 567 625 567Q639 562 639 548Q639 540 633
534Q632 532 374 391L117 250L374 109Q632 -32 633 -34Q639 -40 639 -48ZM944 -40T944 -48T938 -61T924 -67Q919 -67 910 -63Q901 -58 763 17T495 164T364 239Q361 243 361 250T364 261Q367 266 641 415T920 567L924 568Q927 567 930 567Q944 562 944 548Q944 540
938 534Q937 532 679 391L422 250L679 109Q937 -32 938 -34Q944 -40 944 -48Z" />
<glyph unicode="&#x226b;" glyph-name="uni226B" horiz-adv-x="1000" d="M55 547Q55 554 60 560T74 567Q80 567 89 562Q103 555 367 411T636 261Q639 255 639 250Q639 244 635 239Q633 235 497 160T224 11L89 -62Q79 -67 73 -67Q66 -67 61 -61T55 -47T61 -33Q62
-33 95 -15T193 39T320 109L321 110H322L323 111H324L325 112L326 113H327L329 114H330L331 115H332L333 116L334 117H335L336 118H337L338 119H339L340 120L341 121H342L343 122H344L345 123H346L347 124L348 125H349L351 126H352L353 127H354L355 128L356 129H357L358
130H359L360 131H361L362 132L363 133H364L365 134H366L367 135H368L369 136H370L371 137L372 138H373L374 139H375L376 140L378 141L576 251Q63 530 62 533Q55 539 55 547ZM360 547Q360 554 365 560T379 567Q385 567 394 562Q408 555 672 411T941 261Q944 255
944 250Q944 244 940 239Q938 235 802 160T530 12L394 -62Q384 -67 378 -67Q371 -67 366 -61T360 -47T366 -33Q367 -33 400 -15T498 39T625 109L626 110H627L628 111H629L630 112L631 113H632L634 114H635L636 115H637L638 116L639 117H640L641 118H642L643 119H644L645
120L646 121H647L648 122H649L650 123H651L652 124L653 125H654L656 126H657L658 127H659L660 128L661 129H662L663 130H664L665 131H666L667 132L668 133H669L670 134H671L672 135H673L674 136H675L676 137L677 138H678L679 139H680L681 140L683 141L881 251Q368
530 367 533Q360 539 360 547Z" />
<glyph unicode="&#x227a;" glyph-name="uni227A" horiz-adv-x="778" d="M694 -17Q694 -41 674 -41Q658 -41 653 -17Q637 116 486 176Q363 225 137 229Q98 229 94 231Q84 238 84 249T94 267Q98 269 137 269Q204 270 281 277Q521 301 606 404Q645 451 653 512Q655
527 659 533T676 539Q694 536 694 515Q686 436 639 380Q561 287 373 249Q438 234 472 223Q494 216 533 199Q653 139 685 30Q692 6 694 -17Z" />
<glyph unicode="&#x227b;" glyph-name="uni227B" horiz-adv-x="778" d="M674 270Q682 270 688 265T694 249Q694 238 683 231Q679 229 640 229Q491 226 395 206Q146 154 124 -17Q119 -41 103 -41Q83 -41 83 -17Q91 62 138 118Q216 211 404 249Q339 264 305 275Q279
284 245 299Q125 358 92 468Q84 502 84 517Q84 539 102 539Q106 539 112 536Q122 531 124 512Q132 451 171 404Q256 301 497 277Q572 270 640 269Q650 269 661 269T674 270Z" />
<glyph unicode="&#x2282;" glyph-name="propersubset" horiz-adv-x="778" d="M84 250Q84 369 164 448T360 539Q361 539 370 539T395 539T430 540T475 540T524 540H679Q694 533 694 520Q694 510 681 501L522 500Q354 499 337 496Q336 495 329 494Q248 474 193 420T125
285Q124 277 124 250Q124 224 125 216Q135 153 173 105T266 28Q299 13 328 7Q348 2 366 2T522 0H681Q694 -9 694 -20Q694 -33 679 -40H526Q369 -40 362 -39Q261 -29 185 35T89 192Q84 215 84 250Z" />
<glyph unicode="&#x2283;" glyph-name="propersuperset" horiz-adv-x="778" d="M83 520Q83 533 98 540H251Q408 540 415 539Q516 529 592 466T688 309Q693 285 693 250T688 192Q669 99 592 34T415 -39Q407 -40 251 -40H98Q83 -33 83 -20Q83 -9 96 0H255Q423 1
440 4Q441 5 448 6Q480 14 512 28Q567 56 604 105T652 216Q654 232 654 250Q654 269 652 285Q642 347 605 395T512 472Q477 487 449 493Q429 498 411 498T255 500L96 501Q83 510 83 520Z" />
<glyph unicode="&#x2286;" glyph-name="reflexsubset" horiz-adv-x="778" d="M84 346Q84 465 164 544T360 635Q361 635 370 635T395 635T430 636T475 636T524 636H679Q694 629 694 616Q694 606 681 597L522 596Q354 595 337 592Q336 591 329 590Q248 570 193 516T125
381Q124 373 124 346Q124 320 125 312Q135 249 173 201T266 124Q299 109 328 103Q348 98 366 98T522 96H681Q694 87 694 76Q694 63 679 56H526Q369 56 362 57Q261 67 185 131T89 288Q84 311 84 346ZM104 -131T104 -118T118 -98H679Q694 -106 694 -118T679 -138H118Q104
-131 104 -118Z" />
<glyph unicode="&#x2287;" glyph-name="reflexsuperset" horiz-adv-x="778" d="M83 616Q83 629 98 636H251Q408 636 415 635Q516 625 592 562T688 405Q693 381 693 346T688 288Q669 195 592 130T415 57Q407 56 251 56H98Q83 63 83 76Q83 87 96 96H255Q423 97 440
100Q441 101 448 102Q480 110 512 124Q567 152 604 201T652 312Q654 328 654 346Q654 365 652 381Q642 443 605 491T512 568Q477 583 449 589Q429 594 411 594T255 596L96 597Q83 606 83 616ZM84 -131T84 -118T98 -98H659Q674 -106 674 -118T659 -138H98Q84 -131
84 -118Z" />
<glyph unicode="&#x228e;" glyph-name="uni228E" horiz-adv-x="667" d="M591 598Q602 598 611 583V376Q611 345 611 296Q610 162 606 148Q605 146 605 145Q596 106 565 70Q528 27 466 3T333 -22Q255 -22 188 8T87 89Q61 127 56 173Q55 180 55 384L56 585Q65 598
75 598Q86 598 95 585V378L96 172L98 162Q112 95 179 57T332 18Q459 18 530 92Q564 129 570 175Q571 180 571 383V583Q578 598 591 598ZM315 492Q322 503 333 503Q342 503 348 497Q352 492 352 482T353 406V325H515Q531 316 531 305T515 285H353V204Q353 123 351
119Q347 107 333 107T315 119Q313 123 313 204V285H151Q135 294 135 305T151 325H313V406Q313 488 315 492Z" />
<glyph unicode="&#x2291;" glyph-name="uni2291" horiz-adv-x="778" d="M714 76Q714 64 699 56H109Q104 58 95 69L94 344V620Q99 631 105 633L110 636H699Q714 628 714 616T699 596H134V96H698Q714 89 714 76ZM84 -118Q84 -103 100 -98H698Q714 -105 714 -118Q714
-130 699 -138H98Q84 -131 84 -118Z" />
<glyph unicode="&#x2292;" glyph-name="uni2292" horiz-adv-x="778" d="M64 603T64 616T78 636H668Q675 633 683 623V69Q675 59 668 56H78Q64 63 64 76Q64 91 80 96H643V596H78Q64 603 64 616ZM64 -118Q64 -107 79 -98H678Q694 -105 694 -118Q694 -130 679 -138H78Q64
-131 64 -118Z" />
<glyph unicode="&#x2293;" glyph-name="uni2293" horiz-adv-x="667" d="M101 15Q94 1 83 0Q71 0 61 16V301L62 585Q69 594 76 598H592Q602 590 605 583V15Q598 1 587 0Q575 0 565 16V558H101V15Z" />
<glyph unicode="&#x2294;" glyph-name="uni2294" horiz-adv-x="667" d="M572 598T585 598T605 583V15Q603 10 592 1L335 0H77Q66 5 64 11L61 16V301L62 585Q72 598 81 598Q94 598 101 583V40H565V583Q572 598 585 598Z" />
<glyph unicode="&#x2295;" glyph-name="circleplus" horiz-adv-x="778" d="M151 485Q254 583 384 583Q525 583 626 485Q722 382 722 250Q722 228 720 214Q705 98 626 15Q566 -43 488 -68Q440 -83 390 -83Q309 -83 237 -47Q191 -23 151 15Q56 117 56 250Q56 279
57 286Q72 402 151 485ZM369 270V542H364Q323 540 279 522Q203 492 154 426T96 278V270H369ZM681 278Q670 384 598 455T427 540Q413 542 412 542H409V270H681V278ZM369 -42V230H96V222Q107 116 179 45T350 -40Q364 -42 366 -42H369ZM681 222V230H409V-42H412Q413
-42 427 -40Q526 -27 598 44T681 222Z" />
<glyph unicode="&#x2296;" glyph-name="uni2296" horiz-adv-x="778" d="M151 485Q254 583 384 583Q525 583 626 485Q722 382 722 250Q722 228 720 214Q705 98 626 15Q566 -43 488 -68Q440 -83 390 -83Q309 -83 237 -47Q191 -23 151 15Q56 117 56 250Q56 279 57
286Q72 402 151 485ZM681 278Q670 384 598 455T427 540Q411 542 381 542Q353 542 330 537Q238 518 173 449T96 278V270H681V278ZM681 222V230H96V222Q107 115 180 44T355 -41Q362 -42 388 -42Q415 -42 422 -41Q524 -28 597 43T681 222Z" />
<glyph unicode="&#x2297;" glyph-name="circlemultiply" horiz-adv-x="778" d="M151 485Q254 583 384 583Q525 583 626 485Q722 382 722 250Q722 228 720 214Q705 98 626 15Q566 -43 488 -68Q440 -83 390 -83Q309 -83 237 -47Q191 -23 151 15Q56 117 56 250Q56
279 57 286Q72 402 151 485ZM564 485Q489 542 381 542Q353 542 330 537Q245 520 196 471L389 278L485 375L582 471Q579 473 574 477T564 485ZM167 442Q95 362 95 250Q95 137 167 58L359 250L167 442ZM610 58Q682 138 682 250Q682 363 610 442L418 250L610 58ZM388
-42Q498 -42 578 26L582 29L388 222L196 29Q267 -42 388 -42Z" />
<glyph unicode="&#x2298;" glyph-name="uni2298" horiz-adv-x="778" d="M151 485Q254 583 384 583Q525 583 626 485Q722 382 722 250Q722 228 720 214Q705 98 626 15Q566 -43 488 -68Q440 -83 390 -83Q309 -83 237 -47Q191 -23 151 15Q56 117 56 250Q56 279 57
286Q72 402 151 485ZM564 485Q489 542 381 542Q353 542 330 537Q232 517 164 440T95 251Q95 162 144 88Q163 58 167 58L582 471Q579 473 574 477T564 485ZM388 -42Q511 -42 596 42T682 250Q682 361 610 442L196 29Q197 28 233 1Q302 -42 388 -42Z" />
<glyph unicode="&#x2299;" glyph-name="uni2299" horiz-adv-x="778" d="M151 485Q254 583 384 583Q525 583 626 485Q722 382 722 250Q722 228 720 214Q705 98 626 15Q566 -43 488 -68Q440 -83 390 -83Q309 -83 237 -47Q191 -23 151 15Q56 117 56 250Q56 279 57
286Q72 402 151 485ZM427 540Q411 542 381 542Q353 542 330 537Q226 516 159 433Q95 354 95 250Q95 187 120 131Q148 67 204 22T330 -37Q358 -42 389 -42T447 -37Q551 -16 618 67Q682 146 682 250Q682 286 673 322Q654 396 600 453Q532 526 427 540ZM311 250Q311
280 330 302T375 328Q376 328 382 328T392 329Q425 325 445 304T466 250Q466 216 445 194T389 172Q339 172 318 217Q311 231 311 250Z" />
<glyph unicode="&#x22a2;" glyph-name="uni22A2" horiz-adv-x="611" d="M95 15Q88 1 77 0Q65 0 55 16V678Q65 694 77 694Q88 693 95 679V367H540Q555 360 555 347T540 327H95V15Z" />
<glyph unicode="&#x22a3;" glyph-name="uni22A3" horiz-adv-x="611" d="M555 15Q548 1 537 0Q525 0 515 16V327H71Q55 336 55 347T71 367H515V678Q525 694 537 694Q548 693 555 679V15Z" />
<glyph unicode="&#x22a4;" glyph-name="uni22A4" horiz-adv-x="778" d="M409 15Q402 1 391 0Q379 0 369 16V628H71Q55 637 55 648T71 668H708Q723 660 723 648T708 628H409V15Z" />
<glyph unicode="&#x22a5;" glyph-name="perpendicular" horiz-adv-x="778" d="M723 32T723 20T708 0H71Q55 9 55 20T71 40H369V652Q379 668 391 668Q402 667 409 653V40H708Q723 32 723 20Z" />
<glyph unicode="&#x22a8;" glyph-name="uni22A8" horiz-adv-x="867" d="M152 -249T139 -249T119 -235V251L120 737Q130 750 139 750Q152 750 159 735V367H796Q811 360 811 347Q811 336 797 328L479 327H161Q160 327 160 327T159 328V172Q160 172 160 172T161 173H797Q798
172 801 170T806 166T809 161T811 153Q811 140 796 133H159V-235Q152 -249 139 -249Z" />
<glyph unicode="&#x22c4;" glyph-name="uni22C4" horiz-adv-x="500" d="M242 486Q245 488 250 488Q256 488 258 486Q262 484 373 373T486 258T488 250T486 242T373 127T258 14Q256 12 250 12Q245 12 242 14Q237 16 127 126T14 242Q12 245 12 250T14 258Q16 263
126 373T242 486ZM439 250L250 439L61 250L250 61L439 250Z" />
<glyph unicode="&#x22c5;" glyph-name="dotmath" horiz-adv-x="278" d="M78 250Q78 276 95 293T138 310T181 293T199 251Q199 225 181 208T139 190Q113 190 96 208T78 250Z" />
<glyph unicode="&#x22c6;" glyph-name="uni22C6" horiz-adv-x="500" d="M210 282Q210 284 225 381T241 480Q241 484 245 484Q249 486 251 486Q258 486 260 479Q261 478 275 383T290 282L388 299Q484 314 487 314H488Q497 314 497 302Q497 297 434 266Q416 257
404 251L315 206L361 118Q372 98 383 75T401 40L407 28Q407 16 395 16Q394 16 392 16L390 17L250 159L110 17L108 16Q106 16 105 16Q93 16 93 28L99 40Q105 52 116 75T139 118L185 206L96 251Q6 296 4 300Q3 301 3 302Q3 314 12 314H13Q16 314 112 299L210 282Z"
/>
<glyph unicode="&#x22c8;" glyph-name="uni22C8" horiz-adv-x="900" d="M833 50T833 250T832 450T659 351T487 250T658 150T832 50Q833 50 833 250ZM873 10Q866 -5 854 -5Q851 -5 845 -3L449 226L260 115Q51 -5 43 -5Q41 -5 40 -4Q38 -2 37 -2Q31 0 26 11V489Q31
500 37 502Q38 502 40 504Q41 505 43 505Q51 505 260 385L449 274L845 503Q851 505 853 505Q866 505 873 490V10ZM412 250L67 450Q66 450 66 250T67 50Q69 51 240 150T412 250Z" />
<glyph unicode="&#x22ee;" glyph-name="uni22EE" horiz-adv-x="278" d="M78 30Q78 56 95 73T138 90T181 73T199 31Q199 5 181 -12T139 -30Q113 -30 96 -12T78 30ZM78 440Q78 466 95 483T138 500T181 483T199 441Q199 415 181 398T139 380Q113 380 96 398T78 440ZM78
840Q78 866 95 883T138 900T181 883T199 841Q199 815 181 798T139 780Q113 780 96 798T78 840Z" />
<glyph unicode="&#x22ef;" glyph-name="uni22EF" horiz-adv-x="1172" d="M78 250Q78 276 95 293T138 310T181 293T199 251Q199 225 181 208T139 190Q113 190 96 208T78 250ZM525 250Q525 276 542 293T585 310Q611 310 628 293T646 251Q646 225 628 208T586 190Q560
190 543 208T525 250ZM972 250Q972 276 989 293T1032 310T1075 293T1093 251Q1093 225 1075 208T1033 190Q1007 190 990 208T972 250Z" />
<glyph unicode="&#x22f1;" glyph-name="uni22F1" horiz-adv-x="1282" d="M133 760Q133 786 150 803T193 820Q219 820 236 803T254 761Q254 735 236 718T194 700Q168 700 151 718T133 760ZM580 460Q580 486 597 503T640 520T683 503T701 461Q701 435 683 418T641
400Q615 400 598 418T580 460ZM1027 160Q1027 186 1044 203T1087 220Q1113 220 1130 203T1148 161Q1148 135 1130 118T1088 100Q1062 100 1045 118T1027 160Z" />
<glyph unicode="&#x2308;" glyph-name="uni2308" horiz-adv-x="444" d="M214 -235Q207 -249 196 -250Q184 -250 174 -234V734Q179 745 185 747L190 750H298Q406 750 410 748Q422 742 422 730T410 712Q406 710 310 710H214V-235Z" />
<glyph unicode="&#x2309;" glyph-name="uni2309" horiz-adv-x="444" d="M269 -235Q262 -249 251 -250Q239 -250 229 -234V710H133Q37 710 34 712Q21 718 21 730T34 748Q37 750 147 750H256Q266 742 269 735V-235Z" />
<glyph unicode="&#x230a;" glyph-name="uni230A" horiz-adv-x="444" d="M196 750Q207 749 214 735V-210H310Q406 -210 410 -212Q422 -218 422 -230T410 -248Q406 -250 298 -250H190Q179 -245 177 -239L174 -234V734Q184 750 196 750Z" />
<glyph unicode="&#x230b;" glyph-name="uni230B" horiz-adv-x="444" d="M251 750Q262 749 269 735V-235Q267 -240 256 -249L147 -250Q59 -250 46 -250T27 -244Q21 -238 21 -230Q21 -218 34 -212Q37 -210 133 -210H229V734Q239 750 251 750Z" />
<glyph unicode="&#x2322;" glyph-name="uni2322" horiz-adv-x="1000" d="M75 122Q55 127 55 141Q55 149 65 162Q108 228 180 283Q313 382 478 388H526Q649 383 765 319Q870 258 934 162Q944 149 944 141Q944 134 939 128T924 122Q912 125 904 136Q903 138 902
139Q856 203 793 246Q668 328 500 328Q231 328 97 139Q96 137 93 133T89 128T86 125T81 123T75 122Z" />
<glyph unicode="&#x2323;" glyph-name="uni2323" horiz-adv-x="1000" d="M914 378T923 378T938 372T944 358Q944 353 943 351Q939 340 911 310T859 259Q757 173 615 144Q564 134 500 134Q435 134 385 144Q242 173 140 259Q117 279 89 309T56 351Q55 353 55 358Q55
366 60 372T74 378Q86 378 96 363Q158 282 265 236Q371 193 500 193Q628 193 734 236Q841 282 903 363Q914 378 923 378Z" />
<glyph unicode="&#x23b0;" glyph-name="uni23B0" horiz-adv-x="412" d="M354 744L357 741V732Q357 719 349 715Q261 655 242 539Q239 518 239 388T238 250Q239 240 239 124Q239 -7 238 -12Q234 -75 201 -130Q155 -206 78 -244H69H64Q58 -244 57 -243T56 -234Q56
-232 56 -231V-223Q56 -218 63 -215Q153 -153 170 -39Q173 -18 173 112T174 250Q173 260 173 376Q173 507 174 512Q179 589 221 647T327 741L334 744H354Z" />
<glyph unicode="&#x23b1;" glyph-name="uni23B1" horiz-adv-x="412" d="M238 253Q239 251 239 223V119Q239 95 239 74T239 39T239 15T240 -2T239 -12T240 -19T240 -23Q256 -152 349 -215Q357 -219 357 -232V-241L354 -244H334Q246 -199 201 -110Q177 -62 174 -12Q173
-6 173 95Q173 134 173 191T174 250Q173 258 173 382Q173 406 173 427T173 461T173 485T172 502T173 512T172 519T172 523Q156 651 63 715Q56 718 56 723V731V736Q56 744 61 744H69H78Q156 706 201 631Q239 560 239 492V376Q239 341 239 314T238 271T238 253Z"
/>
<glyph unicode="&#x25b3;" glyph-name="uni25B3" horiz-adv-x="889" d="M828 20Q828 7 814 0H75Q59 9 59 20Q59 24 62 30Q65 37 245 370T428 707Q432 716 444 716Q451 716 455 712Q459 710 644 368L828 27V20ZM610 347L444 653Q443 653 278 347T113 40H775Q775
42 610 347Z" />
<glyph unicode="&#x25b9;" glyph-name="uni25B9" horiz-adv-x="500" d="M26 489Q31 500 37 502Q38 502 40 504Q41 505 43 505Q51 505 260 385Q464 266 471 259Q473 257 473 250Q473 242 469 239Q459 231 260 115Q51 -5 43 -5Q41 -5 40 -4Q38 -2 37 -2Q31 0 26
11V489ZM412 250L67 450Q66 450 66 250T67 50Q69 51 240 150T412 250Z" />
<glyph unicode="&#x25bd;" glyph-name="uni25BD" horiz-adv-x="889" d="M814 500Q828 493 828 480V474L644 132Q458 -210 455 -212Q451 -215 444 -215T433 -212Q429 -210 342 -49T164 282T64 466Q59 478 59 480Q59 491 75 500H814ZM775 460H113Q113 459 278 153T444
-153T610 153T775 460Z" />
<glyph unicode="&#x25c3;" glyph-name="uni25C3" horiz-adv-x="500" d="M473 10Q466 -5 454 -5Q451 -5 445 -3Q444 -3 343 56T140 173T35 234Q26 239 26 250T35 266Q40 269 240 384T445 503Q451 505 453 505Q466 505 473 490V10ZM433 50T433 250T432 450T259 351T87
250T258 150T432 50Q433 50 433 250Z" />
<glyph unicode="&#x25ef;" glyph-name="uni25EF" horiz-adv-x="1000" d="M364 693Q430 715 491 715Q575 715 635 693Q759 651 842 547T942 299Q944 277 944 250Q944 175 920 101Q882 -14 799 -94T603 -203Q556 -215 500 -215Q457 -215 429 -210Q342 -195 266 -146T138
-21Q72 76 57 201Q56 212 56 250Q56 328 79 399Q114 505 188 582T364 693ZM904 250Q904 417 800 536T543 674Q534 675 493 675Q446 675 405 664Q288 634 205 542T101 326Q96 291 96 250Q96 193 108 144Q132 46 196 -31T351 -146Q422 -176 500 -176Q522 -176 538
-174Q703 -156 810 -23Q887 73 902 204Q904 224 904 250Z" />
<glyph unicode="&#x2660;" glyph-name="spade" horiz-adv-x="778" d="M723 204Q723 101 691 40T590 -21Q538 -21 503 -1T461 54Q459 62 459 66V70H409V62Q409 -13 432 -89Q437 -107 437 -112Q437 -121 426 -128Q422 -130 389 -130T352 -128Q341 -121 341 -111Q341
-106 346 -89Q369 -13 369 62V70H319V66Q319 36 294 13Q257 -21 191 -21H181Q166 -21 147 -15Q114 -1 96 27Q58 85 55 193Q55 228 60 254Q73 322 116 377T234 498Q316 574 366 704Q372 718 375 722T389 727Q393 727 395 726T400 724T404 720T406 716T409 710T412
704Q462 574 544 498Q632 421 670 364Q715 298 722 230Q723 224 723 204Z" />
<glyph unicode="&#x2661;" glyph-name="uni2661" horiz-adv-x="778" d="M222 716Q278 716 321 685T389 605Q418 651 431 663Q486 716 555 716Q611 716 648 688Q723 632 723 490Q723 484 723 475T722 463Q712 350 602 227Q578 201 506 131Q470 95 451 67T412 -8Q404
-30 398 -32Q394 -33 389 -33Q382 -33 378 -30T371 -22T366 -8Q346 38 327 66T272 131Q200 201 176 227Q66 350 56 463Q56 465 56 474T55 490Q55 568 79 622T149 699Q180 716 222 716ZM198 674Q95 655 95 491Q95 415 137 346Q174 282 287 172Q326 136 344 111T389
39Q392 43 394 48Q409 79 432 109Q449 133 491 172Q571 249 613 303Q683 396 683 487Q683 581 649 631Q613 676 556 676Q502 676 459 635Q419 595 410 538Q406 514 391 514Q380 514 376 519T368 539Q358 595 319 635Q278 675 217 675H208L204 674Q200 674 198 674Z"
/>
<glyph unicode="&#x2662;" glyph-name="uni2662" horiz-adv-x="778" d="M370 714Q370 718 376 722T388 727Q399 727 406 717Q529 470 709 304Q723 291 723 282T709 260Q528 91 406 -153Q402 -162 389 -162T372 -153Q254 84 89 241L64 265Q55 272 55 282T64 299Q93
325 127 361Q260 502 357 689Q370 713 370 714ZM394 653L389 662Q386 658 384 653Q274 447 123 299L105 282L123 265Q274 117 384 -89L389 -98Q392 -94 394 -89Q504 117 655 265L673 282L655 299Q504 447 394 653Z" />
<glyph unicode="&#x2663;" glyph-name="club" horiz-adv-x="778" d="M319 63Q315 24 280 1T197 -22Q143 -22 97 16Q46 57 30 141Q28 157 28 174Q28 244 58 295T134 361Q152 368 175 368Q224 368 258 334Q260 332 262 330T266 327L267 326L288 371Q255 404 247
416Q213 467 213 532Q213 558 215 567Q227 629 266 672T367 725Q373 726 389 726Q431 726 462 709Q544 669 563 567Q565 556 565 532T563 497Q550 423 495 376L490 371L511 326L512 327Q514 328 516 330T520 334Q554 368 606 368Q636 368 660 354Q701 334 725 286T750
174Q750 122 728 78Q707 34 669 6T579 -22Q531 -22 498 0T459 63V70H409V62Q409 -13 432 -89Q437 -107 437 -112Q437 -121 426 -128Q422 -130 389 -130T352 -128Q341 -121 341 -111Q341 -106 346 -89Q369 -13 369 62V70H319V63Z" />
<glyph unicode="&#x266d;" glyph-name="uni266D" horiz-adv-x="389" d="M76 750Q87 750 95 744V434L104 440Q145 467 200 467Q251 467 285 434T331 351Q332 345 332 321Q332 295 331 286Q309 132 104 -11L88 -22H75Q62 -22 56 -16L55 362Q55 741 56 743Q60 750
76 750ZM237 322Q237 417 183 417Q158 417 134 406T101 378Q96 370 96 349T95 197V34Q170 109 211 200Q237 260 237 322Z" />
<glyph unicode="&#x266e;" glyph-name="uni266E" horiz-adv-x="389" d="M65 721Q78 734 94 734Q99 734 104 727V444L116 449Q129 454 157 465T208 486Q313 527 314 527T324 521V-210Q308 -223 294 -223Q289 -223 284 -216V-13L270 -18Q257 -24 231 -34T180 -54Q77
-96 74 -96T65 -90V721ZM104 13Q282 84 283 85Q284 85 284 252Q284 418 283 418L230 396L140 360L104 346V13Z" />
<glyph unicode="&#x266f;" glyph-name="uni266F" horiz-adv-x="389" d="M324 95Q326 95 333 90V6L330 4Q328 1 312 -4L297 -10V-78Q297 -146 295 -149T282 -156Q269 -162 262 -159Q258 -157 258 -149T257 -89V-25L131 -72V-210Q128 -213 116 -218T101 -223Q100
-223 98 -222Q93 -220 92 -212T91 -151Q91 -88 90 -88Q87 -88 78 -91T64 -95Q61 -95 56 -90L55 -50Q55 -16 56 -10T62 -1Q69 2 78 5L91 10V177Q91 343 90 343Q87 343 78 340T64 336Q61 336 56 341L55 381Q55 415 56 421T62 430Q69 433 78 436L91 441V543Q91 646
93 649T106 656Q119 662 126 659Q130 657 130 645T131 554V456L257 503V607L258 710L260 712Q261 715 271 719T286 723L288 722Q289 722 290 722Q295 720 296 708T297 617Q297 519 298 519Q301 519 310 522T324 526Q326 526 333 521V437L330 435Q328 432 312 427L297
421V254Q297 88 298 88Q301 88 310 91T324 95ZM257 72V406L131 359V25L257 72Z" />
<glyph unicode="&#x27e8;" glyph-name="uni27E8" horiz-adv-x="389" d="M333 -232Q332 -239 327 -244T313 -250Q303 -250 296 -240Q293 -233 202 6T110 250T201 494T296 740Q299 745 306 749L309 750Q312 750 313 750Q331 750 333 732Q333 727 243 489Q152 252
152 250T243 11Q333 -227 333 -232Z" />
<glyph unicode="&#x27e9;" glyph-name="uni27E9" horiz-adv-x="389" d="M55 732Q56 739 61 744T75 750Q85 750 92 740Q95 733 186 494T278 250T187 6T92 -240Q85 -250 75 -250Q67 -250 62 -245T55 -232Q55 -227 145 11Q236 248 236 250T145 489Q55 727 55 732Z" />
<glyph unicode="&#x27ee;" glyph-name="uni27EE" horiz-adv-x="412" d="M357 -241L354 -244H334Q246 -199 201 -110Q177 -62 174 -12Q173 -6 173 95Q173 134 173 191T174 250Q173 260 173 376Q173 507 174 512Q179 589 221 647T327 741L334 744H354L357 741V732Q357
719 349 715Q261 655 242 539Q240 524 239 458T238 325T238 250Q239 242 239 119Q239 95 239 74T239 39T239 15T240 -2T239 -12T240 -19T240 -23Q256 -152 349 -215Q357 -219 357 -232V-241Z" />
<glyph unicode="&#x27ef;" glyph-name="uni27EF" horiz-adv-x="412" d="M56 731V736Q56 744 61 744H69H78Q156 706 201 631Q239 560 239 492V376Q239 339 239 311T238 269T238 252Q240 236 240 124Q240 -7 239 -12Q235 -75 202 -130Q156 -206 79 -244H70H65Q58
-244 57 -242T56 -231Q56 -219 64 -215Q153 -154 170 -39Q173 -18 174 119V250Q173 258 173 382Q173 406 173 427T173 461T173 485T172 502T173 512T172 519T172 523Q156 651 63 715Q56 718 56 723V731Z" />
<glyph unicode="&#x27f5;" glyph-name="uni27F5" horiz-adv-x="1609" d="M165 270H1510Q1525 262 1525 250T1510 230H165L168 227Q271 148 303 25Q309 3 309 0Q309 -11 288 -11Q276 -11 273 -9T267 4Q265 11 263 21Q245 94 195 151T73 236Q58 242 55 247Q55 260
73 264Q144 292 194 349T263 479Q264 482 265 488T266 496T268 502T272 507T278 510T288 511Q309 511 309 500Q309 497 303 475Q273 356 168 273L165 270Z" />
<glyph unicode="&#x27f6;" glyph-name="uni27F6" horiz-adv-x="1638" d="M84 237T84 250T98 270H1444Q1373 323 1334 398Q1309 446 1301 493Q1301 495 1301 497T1300 500Q1300 511 1320 511Q1332 511 1335 509T1341 497Q1344 477 1352 456Q1374 389 1425 337T1544
261Q1553 258 1553 250T1544 239Q1476 216 1425 164T1352 44Q1345 23 1341 4Q1339 -6 1336 -8T1320 -11Q1299 -11 1299 0Q1299 3 1305 25Q1336 150 1444 230H98Q84 237 84 250Z" />
<glyph unicode="&#x27f7;" glyph-name="uni27F7" horiz-adv-x="1859" d="M165 270H1694Q1623 323 1584 398Q1559 446 1551 493Q1551 495 1551 497T1550 500Q1550 511 1570 511Q1582 511 1585 509T1591 497Q1594 477 1602 456Q1624 389 1675 337T1794 261Q1803
258 1803 250T1794 239Q1726 216 1675 164T1602 44Q1595 23 1591 4Q1589 -6 1586 -8T1570 -11Q1549 -11 1549 0Q1549 3 1555 25Q1586 150 1694 230H165L168 227Q271 148 303 25Q309 3 309 0Q309 -11 288 -11Q276 -11 273 -9T267 4Q265 11 263 21Q245 94 195 151T73
236Q58 242 55 247Q55 260 73 264Q144 292 194 349T263 479Q264 482 265 488T266 496T268 502T272 507T278 510T288 511Q309 511 309 500Q309 497 303 475Q273 356 168 273L165 270Z" />
<glyph unicode="&#x27f8;" glyph-name="uni27F8" horiz-adv-x="1609" d="M274 173H1539Q1540 172 1543 170T1548 166T1551 161T1553 153Q1553 140 1538 133H318L328 123Q379 69 414 0Q419 -12 419 -16Q419 -24 399 -24Q388 -24 385 -23T377 -12Q303 134 160 204Q118
225 72 237Q62 240 59 242T56 250T59 257T72 263Q174 289 252 354T377 512Q391 524 395 525H401Q419 524 419 515Q419 512 414 500Q379 431 328 377L318 367H1538Q1553 360 1553 347Q1553 336 1539 328L1221 327H903Q902 327 900 328L602 327H274L264 319Q224 289
147 250Q151 247 157 245Q212 221 264 181L274 173Z" />
<glyph unicode="&#x27f9;" glyph-name="uni27F9" horiz-adv-x="1638" d="M1218 514Q1218 525 1234 525Q1248 525 1251 524T1260 512Q1340 353 1505 284Q1537 270 1565 263Q1582 258 1582 250T1565 237Q1463 211 1385 145T1260 -12Q1256 -21 1253 -22T1238 -24Q1218
-24 1218 -16Q1218 -12 1223 0Q1258 69 1309 123L1319 133H70Q56 140 56 153Q56 168 72 173H1363L1373 181Q1413 211 1490 250Q1486 253 1480 255Q1425 279 1373 319L1363 327H710L709 328Q708 328 707 328L390 327H72Q56 332 56 347Q56 360 70 367H1319L1309 377Q1258
431 1223 500Q1218 510 1218 514Z" />
<glyph unicode="&#x27fa;" glyph-name="uni27FA" horiz-adv-x="1858" d="M1438 514Q1438 525 1454 525Q1468 525 1471 524T1480 512Q1560 353 1725 284Q1757 270 1785 263Q1802 258 1802 250T1785 237Q1683 211 1605 145T1480 -12Q1476 -21 1473 -22T1458 -24Q1438
-24 1438 -16Q1438 -12 1443 0Q1478 69 1529 123L1539 133H318L328 123Q379 69 414 0Q419 -12 419 -16Q419 -24 399 -24Q388 -24 385 -23T377 -12Q303 134 160 204Q118 225 72 237Q62 240 59 242T56 250T59 257T72 263Q174 289 252 354T377 512Q391 524 395 525H401Q419
524 419 515Q419 512 414 500Q379 431 328 377L318 367H1539L1529 377Q1478 431 1443 500Q1438 510 1438 514ZM274 173H1583L1593 181Q1633 211 1710 250Q1706 253 1700 255Q1645 279 1593 319L1583 327H930L929 328Q928 328 927 328L602 327H274L264 319Q224 289
147 250Q151 247 157 245Q212 221 264 181L274 173Z" />
<glyph unicode="&#x27fc;" glyph-name="uni27FC" horiz-adv-x="1638" d="M57 425Q63 437 75 437Q83 437 89 431Q94 426 94 416T95 345V270H1444Q1373 323 1334 398Q1309 446 1301 493Q1301 495 1301 497T1300 500Q1300 511 1320 511Q1332 511 1335 509T1341 497Q1344
477 1352 456Q1374 389 1425 337T1544 261Q1553 258 1553 250T1544 239Q1476 216 1425 164T1352 44Q1345 23 1341 4Q1339 -6 1336 -8T1320 -11Q1299 -11 1299 0Q1299 3 1305 25Q1336 150 1444 230H95V155Q95 94 95 84T89 69Q83 63 75 63T61 69Q56 74 56 93T55 250Q55
421 57 425Z" />
<glyph unicode="&#x2a3f;" glyph-name="uni2A3F" horiz-adv-x="750" d="M721 660V654Q721 642 717 640T693 637H672Q629 637 620 626Q619 623 619 342Q619 60 620 57Q629 46 672 46H693Q717 46 719 40Q721 37 721 23Q721 5 715 1Q713 0 374 0Q36 0 34 1Q28 5 28
23Q28 37 30 40Q32 46 56 46H77Q120 46 129 57Q131 63 131 342Q131 620 129 626Q120 637 77 637H56Q32 637 30 643Q28 646 28 660Q28 677 31 680T50 683Q87 681 182 681Q207 681 251 681T315 682Q328 682 330 678T332 660V654Q332 642 328 640T304 637H283Q240
637 231 626Q229 620 229 334V46H520V334Q520 620 518 626Q509 637 466 637H445Q425 637 421 639T417 654V660V668Q417 677 420 679T435 682Q451 682 493 682T569 681T644 681T703 682Q715 682 718 680T721 668V660Z" />
<glyph unicode="&#x2aaf;" glyph-name="uni2AAF" horiz-adv-x="778" d="M694 80Q694 57 674 57Q663 57 659 62T653 83Q645 144 606 191Q521 294 281 318Q204 325 137 326Q98 326 94 328Q84 335 84 346T94 364Q98 366 137 366Q204 367 281 374Q521 398 606 501Q645
548 653 609Q655 624 659 630T676 636Q694 633 694 612Q686 533 639 477Q561 384 373 346Q438 331 472 320Q494 313 533 296Q653 236 685 127Q692 103 694 80ZM84 -131T84 -118T98 -98H679Q694 -106 694 -118T679 -138H98Q84 -131 84 -118Z" />
<glyph unicode="&#x2ab0;" glyph-name="uni2AB0" horiz-adv-x="778" d="M674 367Q682 367 688 362T694 346Q694 335 683 328Q679 326 640 326Q358 320 235 245Q139 187 124 83Q122 67 118 62T103 57Q83 57 83 80Q91 159 138 215Q216 308 404 346Q339 361 305 372Q279
381 245 396Q125 455 92 565Q84 599 84 614Q84 636 102 636Q106 636 112 633Q122 628 124 609Q132 548 171 501Q256 398 497 374Q572 367 640 366Q650 366 661 366T674 367ZM84 -131T84 -118T98 -98H679Q694 -106 694 -118T679 -138H98Q84 -131 84 -118Z" />
<glyph unicode="&#xeffd;" glyph-name="uniEFFD" horiz-adv-x="300" d="M0 0V100H100V0H0ZM200 0V100H300V0H200Z" />
<glyph unicode="&#xeffe;" glyph-name="uniEFFE" horiz-adv-x="300" d="M0 0V100H100V0H0ZM200 0V100H300V0H200Z" />
<glyph unicode="&#xefff;" glyph-name="uniEFFF" horiz-adv-x="100" d="M0 0V100H100V0H0Z" />
</font>
</defs>
</svg>
